РэПэПэ / Режим полного погружения (Евгений Барханов) [2012, Трагикомедия, SATRip]

Ответить на тему
 
Автор Сообщение

user ®

Стаж: 7 лет 7 месяцев

Сообщений: 20008

Пост Пост: #1 от 26-Фев-2014 17:50

[Цитировать]

РэПэПэ / Режим полного погружения
Жанр: Трагикомедия
Год выпуска: 2012
Продолжительность: 1:44:47
Режиссёр: Евгений Барханов
В ролях: Антон Куценко, Ричард Бондарев, Игорь Кулачко, Ирина Яковлева, Евгений Барханов, Раиса Конюхова, Андрей Бронников, Александр Руснак, Наталья Пярн, Этьен Понселе, Владислав Кувицын, Вадим Кувицын, Ульрих Хербек
Описание: Главные герои фильма друзья - Жора, Валера и Изольда. Они решают открыть туристическое агентство для иностранцев "Stalin_adrenalin.ru". Желающие смогут полностью погрузиться в 1942 год, в образе солдат того времени вблизи Ржева. Но в определенный момент в местных жителях оживут воспоминания в военном времени, и развлечение превратится в реальность. С героями станут происходить не только смешные и нелепые ситуации, но и настоящие человеческие драмы...
Сэмпл: http://multi-up.com/954563
Качество видео: SATRip
Формат видео: AVI
Видео: XviD MPEG-4 , 704x400 (1.76:1) , 25 fps , 1806 kbps avg
Аудио: AC3 , 48 kHz , 160.00 kbps avg , 2/0 (L,R) ch

MediaInfo

General
Complete name : C:\Режим полного погружения 2012.avi
Format : AVI
Format/Info : Audio Video Interleave
File size : 1.45 GiB
Duration : 1h 44mn
Overall bit rate : 1 976 Kbps
Writing library : VirtualDub build 35390/release
Video
ID : 0
Format : MPEG-4 Visual
Format settings, BVOP : No
Format settings, QPel : No
Format settings, GMC : No warppoints
Format settings, Matrix : Default (H.263)
Codec ID : XVID
Codec ID/Hint : XviD
Duration : 1h 44mn
Bit rate : 1 806 Kbps
Width : 704 pixels
Height : 400 pixels
Display aspect ratio : 16:9
Frame rate : 25.000 fps
Color space : YUV
Chroma subsampling : 4:2:0
Bit depth : 8 bits
Scan type : Progressive
Compression mode : Lossy
Bits/(Pixel*Frame) : 0.257
Stream size : 1.32 GiB (91%)
Audio
ID : 1
Format : AC-3
Format/Info : Audio Coding 3
Mode extension : CM (complete main)
Format settings, Endianness : Big
Codec ID : 2000
Duration : 1h 44mn
Bit rate mode : Constant
Bit rate : 160 Kbps
Channel(s) : 2 channels
Channel positions : Front: L R
Sampling rate : 48.0 KHz
Bit depth : 16 bits
Compression mode : Lossy
Stream size : 120 MiB (8%)
Alignment : Aligned on interleaves
Interleave, duration : 40 ms (1.00 video frame)
Interleave, preload duration : 512 ms

Скриншот c названием фильма

Скриншоты

Скачать

Скачать торрент!

Как скачивать? · Что такое торрент? · Рейтинг и ограничения

Сайт не распространяет и не хранит электронные версии произведений, а лишь предоставляет доступ к создаваемому пользователями каталогу ссылок на торрент-файлы, которые содержат только списки хеш-сумм

[Профиль] [ЛС]
Показать сообщения:    
Ответить на тему

Текущее время: Сегодня 14:11

Часовой пояс: GMT + 4



Вы не можете начинать темы
Вы не можете отвечать на сообщения
Вы не можете редактировать свои сообщения
Вы не можете удалять свои сообщения
Вы не можете голосовать в опросах
Вы не можете прикреплять файлы к сообщениям
Вы не можете скачивать файлы