Принц моих грез / Vastadu Naa Raju (Хемант Мадхукар / Hemant Madhukar) [2011, Индия, Комедия, HDRip] MVO

Ответить на тему
 
Автор Сообщение

user ®

Стаж: 12 лет

Сообщений: 15092

Пост Пост: #1 от 26-Фев-2014 08:20

[Цитировать]

Принц моих грез / Vastadu Naa Raju
-Страна: Индия
Жанр: Комедия
Год выпуска: 2011
Продолжительность: 02:40:47-Перевод: Профессиональный (многоголосый закадровый) - Red Media [Индия ТВ]
Субтитры: Нет--Режиссер: Хемант Мадхукар / Hemant Madhukar-В ролях: Вишну Манчу, Тапси Панну, Саяджи Шинде, Пракаш Радж, Аджай, Таникелла Бхарани, Брахманандам, Джива, Рама Прабха--Описание: Венки (Vishnu) - молодой, начинающий кик-боксер. Он живёт беззаботно, и мечтает лишь об одном: получить чемпионский кубок. Совершенно случайно, он несколько раз пересекается с Пуджей (Tapsee), сестрой известного бандита Нарансимхи (Prakash Raj), стремящегося стать политиком . В результате этих случайных встреч, Нарансимха начинает подозревать о том, что Пуджа и Венки влюблены друг в друга. Он хочет выдать сестру за сына Министра внутренних дел, тем самым обеспечив себе место в Ассамблее, появление Венки мешает его планам.
Любовь, честь, дружба, грязные политические игры, незатейливые шутки - всё то, что так присуще индийским мелодрамам, вы найдёте в этом фильме.-Доп. информация: Фильм снят на языке телугу.-- | --Качество видео: HDRip (исх. BDRip 1080p)
Формат видео: AVI-Видео: XviD, 672x288, 24 fps, 1162 Kbps
Аудио: MP3, 48 KHz, 2ch, 128 Kbps--Сэмпл / Sample--Риппер, сведение звука: soso4eg-- --

Скриншот с названием:


-

Скриншоты:


-

MediaInfo:

Общее
Полное имя : D:\[Релизы]\Prints.Moih.Grez.2011.HDRip.XviD-soso4eg.avi
Формат : AVI
Формат/Информация : Audio Video Interleave
Размер файла : 1,46 Гбайт
Продолжительность : 2 ч. 40 м.
Общий поток : 1300 Кбит/сек
Программа кодирования : VirtualDubMod 1.5.10.3 | www.virtualdub-fr.org || (build 2550/release)
Видео
Идентификатор : 0
Формат : MPEG-4 Visual
Профиль формата : Advanced Simple@L5
Параметр BVOP формата : 1
Параметр QPel формата : Нет
Параметр GMC формата : Без точки перехода
Параметр матрицы формата : Default (H.263)
Идентификатор кодека : XVID
Идентификатор кодека/Подсказка : XviD
Продолжительность : 2 ч. 40 м.
Битрейт : 1162 Кбит/сек
Ширина : 672 пикселя
Высота : 288 пикселей
Соотношение сторон : 2,35:1
Частота кадров : 24,000 кадра/сек
Цветовое пространство : YUV
Субдискретизация насыщенности : 4:2:0
Битовая глубина : 8 бит
Тип развёртки : Прогрессивная
Метод сжатия : С потерями
Бит/(Пиксели*Кадры) : 0.250
Размер потока : 1,31 Гбайт (89%)
Библиотека кодирования : XviD 1.2.1 (UTC 2008-12-04)
Аудио
Идентификатор : 1
Формат : MPEG Audio
Версия формата : Version 1
Профиль формата : Layer 3
Режим : Joint stereo
Расширение режима : MS Stereo
Идентификатор кодека : 55
Идентификатор кодека/Подсказка : MP3
Продолжительность : 2 ч. 40 м.
Вид битрейта : Постоянный
Битрейт : 128 Кбит/сек
Каналы : 2 канала
Частота : 48,0 КГц
Метод сжатия : С потерями
Размер потока : 147 Мбайт (10%)
Выравнивание : Соединение по промежуткам
Продолжительность промежутка : 42 мс. (1,00 видеокадр)
Время предзагрузки промежутка : 504 мс.
-
Скачать

Скачать торрент! Принц моих грез / Vastadu Naa Raju (Хемант Мадхукар / Hemant Madhukar) [2011, Индия, Комедия, HDRip] MVO

Как скачивать? · Что такое торрент? · Рейтинг и ограничения

Сайт не распространяет и не хранит электронные версии произведений, а лишь предоставляет доступ к создаваемому пользователями каталогу ссылок на торрент-файлы, которые содержат только списки хеш-сумм

[Профиль] [ЛС]
Показать сообщения:    
Ответить на тему

Текущее время: Сегодня 19:43

Часовой пояс: GMT + 4



Вы не можете начинать темы
Вы не можете отвечать на сообщения
Вы не можете редактировать свои сообщения
Вы не можете удалять свои сообщения
Вы не можете голосовать в опросах
Вы не можете прикреплять файлы к сообщениям
Вы не можете скачивать файлы