Самая обаятельная и привлекательная (Геральд Бежанов) [1985, комедия, мелодрама, DVDRip-AVC]

Ответить на тему
 
Автор Сообщение

user ®

Стаж: 7 лет 7 месяцев

Сообщений: 20008

Пост Пост: #1 от 26-Фев-2014 03:25

[Цитировать]

Самая обаятельная и привлекательная
Жанр: комедия, мелодрама
Год выпуска: 1985
Продолжительность: 01:20:18
Режиссёр: Геральд Бежанов
В ролях: Ирина Муравьева (Надя Клюева), Татьяна Васильева (Сусанна), Александр Абдулов (Володя Смирнов), Леонид Куравлев (Миша Дятлов), Михаил Кокшенов (Лёша Пряхин), Людмила Иванова (Клавдия Матвеевна), Лариса Удовиченко (Люся Виноградова), Владимир Носик (Гена Сысоев), Александр Ширвиндт (Аркадий, муж Сусанны), Лев Перфилов (Пётр Васильевич, начальник Нади), Любовь Соколова (мать Нади), Вероника Изотова (попутчица в поезде)
Описание: У инженера Нади Клюевой максимум общественной, но минимум личной жизни. Все меняется, когда она случайно встречает в автобусе свою старую знакомую, школьную одноклассницу Сусанну, ныне работающую социологом на заводе бытовых кондиционеров. Сусанна решает наладить личную жизнь своей подруги, используя научный метод.
Качество видео: DVDRip-AVC
Формат видео: MKV
Видео: 720x438@1024x438, (2,35:1), 25.000 fps, AVC, ~2382 Kbps
Аудио: Russian (Dolby AC3, 1 ch) 192 Kbps

MediaInfo

raw [info]: 720x438p 64:45 @ 25/1 fps (cfr)
x264 [info]: using SAR=64/45
x264 [info]: using cpu capabilities: MMX2 SSE2Fast SSSE3 SSE4.2 AVX
x264 [info]: profile High, level 4.1
x264 [info]: frame I:673 Avg QP:18.68 size: 58492
x264 [info]: frame P:23229 Avg QP:21.13 size: 25656
x264 [info]: frame B:96554 Avg QP:22.99 size: 8277-Общее
Уникальный идентификатор : 208135967620112645722211107699010256147 (0x9C95877D36B1E97AA25B462382033D13)
Полное имя : D:\Самая обаятельная и привлекательная_1985-DVDRip-AVC.mkv
Формат : Matroska
Версия формата : Version 2
Размер файла : 1,46 Гбайт
Продолжительность : 1 ч. 20 м.
Общий поток : 2607 Кбит/сек
Дата кодирования : UTC 2014-02-25 21:29:00
Программа кодирования : mkvmerge v5.1.0 ('And so it goes') built on Nov 28 2011 23:58:28
Библиотека кодирования : libebml v1.2.3 + libmatroska v1.3.0
Видео
Идентификатор : 1
Формат : AVC
Формат/Информация : Advanced Video Codec
Профиль формата : High@L4.1
Параметр CABAC формата : Да
Параметр ReFrames формата : 14 кадров
Идентификатор кодека : V_MPEG4/ISO/AVC
Продолжительность : 1 ч. 20 м.
Битрейт : 2382 Кбит/сек
Ширина : 720 пикселей
Высота : 438 пикселей
Соотношение сторон : 2,35:1
Режим частоты кадров : Постоянный
Частота кадров : 25,000 кадров/сек
Цветовое пространство : YUV
Субдискретизация насыщенности : 4:2:0
Битовая глубина : 8 бит
Тип развёртки : Прогрессивная
Бит/(Пиксели*Кадры) : 0.302
Размер потока : 1,31 Гбайт (89%)
Библиотека кодирования : x264 core 142 r2389 956c8d8
Настройки программы : cabac=1 / ref=14 / deblock=1:-2:-2 / analyse=0x3:0x133 / me=umh / subme=11 / psy=1 / psy_rd=1.05:0.17 / mixed_ref=1 / me_range=24 / chroma_me=1 / trellis=2 / 8x8dct=1 / cqm=0 / deadzone=21,11 / fast_pskip=0 / chroma_qp_offset=-3 / threads=12 / lookahead_threads=2 / sliced_threads=0 / nr=0 / decimate=0 / interlaced=0 / bluray_compat=0 / constrained_intra=0 / bframes=8 / b_pyramid=2 / b_adapt=2 / b_bias=0 / direct=3 / weightb=1 / open_gop=0 / weightp=2 / keyint=250 / keyint_min=25 / scenecut=40 / intra_refresh=0 / rc_lookahead=60 / rc=2pass / mbtree=1 / bitrate=2382 / ratetol=1.0 / qcomp=0.75 / qpmin=0 / qpmax=39 / qpstep=4 / cplxblur=20.0 / qblur=0.5 / ip_ratio=1.30 / aq=1:1.00
Язык : English
Default : Да
Forced : Нет
Основные цвета : BT.601 PAL
Характеристики трансфера : BT.470 System B, BT.470 System G
Коэффициенты матрицы : BT.601
Аудио
Идентификатор : 2
Формат : AC-3
Формат/Информация : Audio Coding 3
Расширение режима : CM (complete main)
Параметр Endianness формата : Big
Идентификатор кодека : A_AC3
Продолжительность : 1 ч. 20 м.
Вид битрейта : Постоянный
Битрейт : 224 Кбит/сек
Каналы : 1 канал
Расположение каналов : Front: C
Частота : 48,0 КГц
Битовая глубина : 16 бит
Метод сжатия : С потерями
Задержка видео : 2 с. 164 мс.
Размер потока : 129 Мбайт (9%)
Язык : Russian
Default : Да
Forced : Нет
Скачать

Скачать торрент!

Как скачивать? · Что такое торрент? · Рейтинг и ограничения

Сайт не распространяет и не хранит электронные версии произведений, а лишь предоставляет доступ к создаваемому пользователями каталогу ссылок на торрент-файлы, которые содержат только списки хеш-сумм

[Профиль] [ЛС]
Показать сообщения:    
Ответить на тему

Текущее время: Сегодня 22:34

Часовой пояс: GMT + 4



Вы не можете начинать темы
Вы не можете отвечать на сообщения
Вы не можете редактировать свои сообщения
Вы не можете удалять свои сообщения
Вы не можете голосовать в опросах
Вы не можете прикреплять файлы к сообщениям
Вы не можете скачивать файлы