Рам и Лила / Goliyon Ki Rasleela Ram-Leela (Санджай Лила Бхансали / Sadjay Leela Bhansali) [2013, Индия, Мюзикл, драма, мелодрама, DVDRip] MVO (ICG) + Original + Sub Rus

Ответить на тему
 
Автор Сообщение

user ®

Стаж: 12 лет

Сообщений: 15092

Пост Пост: #1 от 25-Фев-2014 17:55

[Цитировать]

Рам и Лила / Goliyon Ki Rasleela Ram-Leela
Страна: Индия
Жанр: Мюзикл, драма, мелодрама
Год выпуска: 2013
Продолжительность: 02:36:31
Перевод: Любительский (многоголосый закадровый) ICG
Cубтитры: русские
Оригинальная аудиодорожка: хинди
Режиссер: Санджай Лила Бхансали / Sadjay Leela Bhansali
В ролях: Ранвир Сингх, Дипика Падукон, Кришна Сингх Бишт, Суприя Патхак, Виван Батена, Рича Чадда, Гюлшан Девайя, Шарад Келкар, Джамиль Кхан, Раза Мурад
Описание: Две семьи, Санера и Раджади, враждуют много поколений, и нет надежды на примирение. Но однажды, Рам встретил Лилу...


Сэмпл: http://multi-up.com/952749
Релиз подготовлен: , по заказу
Перевод: Rummata
Качество видео: DVDRip
Формат видео: AVI
Видео: 720x304 (2.37:1), 23.976 fps, XviD MPEG-4 ~1313 kbps avg, 0.2 bit/pixel
Аудио: Русский 48 kHz, AC3 Dolby Digital, 6 (L C R, Side: L R, LFE), ~448kbps avg
Аудио 2: Хинди 48 kHz, AC3 Dolby Digital, 2 (L,R), ~224kbps avg
Формат субтитров: softsub (SRT) #Внешние, полные и на песни

MediaInfo

General
Complete name : D:\Video\Индийские фильмы\Goliyon.Ki.Raasleela.Ram-Leela.2013.DVDRip.Rus.Original.ICG.GeneralFilm\Goliyon.Ki.Raasleela.Ram-Leela.2013.DVDRip.Rus.Original.ICG.GeneralFilm.avi
Format : AVI
Format/Info : Audio Video Interleave
Format profile : OpenDML
File size : 2.19 GiB
Duration : 2h 36mn
Overall bit rate : 2 002 Kbps
Writing application : VirtualDubModRus 1.5.10.2 (build 2542/release)
Writing library : VirtualDubMod build 2542/release
Video
ID : 0
Format : MPEG-4 Visual
Format profile : Advanced Simple@L5
Format settings, BVOP : 1
Format settings, QPel : No
Format settings, GMC : No warppoints
Format settings, Matrix : Default (MPEG)
Codec ID : XVID
Codec ID/Hint : XviD
Duration : 2h 36mn
Bit rate : 1 313 Kbps
Width : 720 pixels
Height : 304 pixels
Display aspect ratio : 2.35:1
Frame rate : 23.976 fps
Color space : YUV
Chroma subsampling : 4:2:0
Bit depth : 8 bits
Scan type : Progressive
Compression mode : Lossy
Bits/(Pixel*Frame) : 0.250
Stream size : 1.44 GiB (66%)
Writing library : XviD 64
Audio #1
ID : 1
Format : AC-3
Format/Info : Audio Coding 3
Mode extension : CM (complete main)
Format settings, Endianness : Big
Codec ID : 2000
Duration : 2h 36mn
Bit rate mode : Constant
Bit rate : 448 Kbps
Channel(s) : 6 channels
Channel positions : Front: L C R, Side: L R, LFE
Sampling rate : 48.0 KHz
Bit depth : 16 bits
Compression mode : Lossy
Stream size : 502 MiB (22%)
Alignment : Split accross interleaves
Interleave, duration : 42 ms (1.00 video frame)
Interleave, preload duration : 500 ms
Audio #2
ID : 2
Format : AC-3
Format/Info : Audio Coding 3
Mode extension : CM (complete main)
Format settings, Endianness : Big
Codec ID : 2000
Duration : 2h 36mn
Bit rate mode : Constant
Bit rate : 224 Kbps
Channel(s) : 2 channels
Channel positions : Front: L R
Sampling rate : 48.0 KHz
Bit depth : 16 bits
Compression mode : Lossy
Stream size : 251 MiB (11%)
Alignment : Aligned on interleaves
Interleave, duration : 42 ms (1.00 video frame)
Interleave, preload duration : 512 ms

Доп. информация

Вы можете нас любить, можете ненавидеть. Но игнорировать нас у вас не получится. (с) (по мотивам рассказов дядюшки Шаха)
P.S. При копировании релиза на другие ресурсы сохраняйте оформление до буковки!
И просто огромная просьба - не выкидывайте из раздач субтитры и дорожки!
В раздаче фильма убедительная просьба обсуждать сам фильм.
Убедительная просьба отказаться от оскорбления участников группы, в завуалированной форме в том числе.

Скриншот c названием фильма

Скриншоты

Скачать

Скачать торрент! Рам и Лила / Goliyon Ki Rasleela Ram-Leela (Санджай Лила Бхансали / Sadjay Leela Bhansali) [2013, Индия, Мюзикл, драма, мелодрама, DVDRip] MVO (ICG) + Original + Sub Rus

Как скачивать? · Что такое торрент? · Рейтинг и ограничения

Сайт не распространяет и не хранит электронные версии произведений, а лишь предоставляет доступ к создаваемому пользователями каталогу ссылок на торрент-файлы, которые содержат только списки хеш-сумм

[Профиль] [ЛС]
Показать сообщения:    
Ответить на тему

Текущее время: Сегодня 19:45

Часовой пояс: GMT + 4



Вы не можете начинать темы
Вы не можете отвечать на сообщения
Вы не можете редактировать свои сообщения
Вы не можете удалять свои сообщения
Вы не можете голосовать в опросах
Вы не можете прикреплять файлы к сообщениям
Вы не можете скачивать файлы