Репортеры / Репортеры Ганга и Рамбабу / Cameraman Gangatho Rambabu (Пури Джаганнатх / Puri Jagannadh) [2012, Индия, Боевик, HDRip] MVO (Red Media)

Ответить на тему
 
Автор Сообщение

user ®

Стаж: 12 лет

Сообщений: 15092

Пост Пост: #1 от 25-Фев-2014 09:40

[Цитировать]

Репортеры / Репортеры Ганга и Рамбабу
-Страна: Индия
Жанр: Боевик
Год выпуска: 2012
Продолжительность: 02:28:36-Перевод: Профессиональный (многоголосый закадровый) - Red Media [Индия ТВ]
Субтитры: Нет--Режиссер: Пури Джаганнатх / Puri Jagannadh-В ролях: Паван Кальян, Таманна, Али, Брахманандам, Габриэла Бертанте, Пракаш Радж, Шриниваса Рао Кота--Описание: Журналистами не становятся. Ими рождаются. И журналистика - это не профессия, а образ жизни. В журналистику приходят люди, ищущие ответа на насущные вопросы: почему все вокруг устроено так, а не иначе и что сделать, чтобы изменить социальную ответственность общества. Главный герой фильма Рамбабу (Паван Кальян) обо всем этом не думал, он просто трудился себе в своей автомастерской, а в свободное время, изучив новости из газет и телепрограмм, ехал причинять людям добро. Пока однажды на пороге его мастерской не появилась бойкая операторша с телеканала по имени Ганга (Таманна). А потом из героев передачи Рамбабу сам превратился в репортера, безжалостно разоблачающего низменность рвущихся к власти политиканов.-Доп. информация: Фильм снят на языке телугу.-- | | Трейлер--Качество видео: HDRip (исх. BDRip 720p)
Формат видео: AVI-Видео: XviD, 688x288, 24 fps, 1307 Kbps
Аудио: MP3, 48 KHz, 2ch, 128 Kbps--Сэмпл / Sample--Риппер, сведение звука: soso4eg-- --

Скриншот с названием:


-

Скриншоты:


-

MediaInfo:

Общее
Полное имя : D:\[Релизы]\Reportery.2012.HDRip.XviD-soso4eg.avi
Формат : AVI
Формат/Информация : Audio Video Interleave
Размер файла : 1,46 Гбайт
Продолжительность : 2 ч. 24 м.
Общий поток : 1442 Кбит/сек
Программа кодирования : VirtualDubMod 1.5.10.3 | www.virtualdub-fr.org || (build 2550/release)
Видео
Идентификатор : 0
Формат : MPEG-4 Visual
Профиль формата : Advanced Simple@L5
Параметр BVOP формата : 1
Параметр QPel формата : Нет
Параметр GMC формата : Без точки перехода
Параметр матрицы формата : Default (H.263)
Идентификатор кодека : XVID
Идентификатор кодека/Подсказка : XviD
Продолжительность : 2 ч. 24 м.
Битрейт : 1305 Кбит/сек
Ширина : 688 пикселей
Высота : 288 пикселей
Соотношение сторон : 2,40:1
Частота кадров : 24,000 кадра/сек
Цветовое пространство : YUV
Субдискретизация насыщенности : 4:2:0
Битовая глубина : 8 бит
Тип развёртки : Прогрессивная
Метод сжатия : С потерями
Бит/(Пиксели*Кадры) : 0.274
Размер потока : 1,32 Гбайт (90%)
Библиотека кодирования : XviD 1.2.1 (UTC 2008-12-04)
Аудио
Идентификатор : 1
Формат : MPEG Audio
Версия формата : Version 1
Профиль формата : Layer 3
Режим : Joint stereo
Расширение режима : MS Stereo
Идентификатор кодека : 55
Идентификатор кодека/Подсказка : MP3
Продолжительность : 2 ч. 24 м.
Вид битрейта : Постоянный
Битрейт : 128 Кбит/сек
Каналы : 2 канала
Частота : 48,0 КГц
Метод сжатия : С потерями
Размер потока : 133 Мбайт (9%)
Выравнивание : Соединение по промежуткам
Продолжительность промежутка : 42 мс. (1,00 видеокадр)
Время предзагрузки промежутка : 504 мс.
-
Скачать

Скачать торрент! Репортеры / Репортеры Ганга и Рамбабу / Cameraman Gangatho Rambabu (Пури Джаганнатх / Puri Jagannadh) [2012, Индия, Боевик, HDRip] MVO (Red Media)

Как скачивать? · Что такое торрент? · Рейтинг и ограничения

Сайт не распространяет и не хранит электронные версии произведений, а лишь предоставляет доступ к создаваемому пользователями каталогу ссылок на торрент-файлы, которые содержат только списки хеш-сумм

[Профиль] [ЛС]
Показать сообщения:    
Ответить на тему

Текущее время: Сегодня 05:41

Часовой пояс: GMT + 4



Вы не можете начинать темы
Вы не можете отвечать на сообщения
Вы не можете редактировать свои сообщения
Вы не можете удалять свои сообщения
Вы не можете голосовать в опросах
Вы не можете прикреплять файлы к сообщениям
Вы не можете скачивать файлы