Горящий человек / Burning Man (Джонатан Теплицки / Jonathan Teplitzky) [2011, Великобритания, Австралия, драма, мелодрама, BDRip 720p] Sub Rus (lingua.pura) + Original Eng

Ответить на тему
 
Автор Сообщение

user ®

Стаж: 7 лет 7 месяцев

Сообщений: 20008

Пост Пост: #1 от 24-Фев-2014 12:45

[Цитировать]

Горящий человек / Burning Man
Страна: Великобритания, Австралия
Жанр: драма, мелодрама
Год выпуска: 2011
Продолжительность: 01:50:07
Перевод: Субтитры (lingua.pura от RG Translators)
Cубтитры: русские, английские
Оригинальная аудиодорожка: английский
Режиссер: Джонатан Теплицки / Jonathan Teplitzky
В ролях: Мэттью Гуд, Бояна Новакович, Эсси Дэвис, Рэйчел Гриффитс, Керри Фокс, Энтони Хэйес, Кейт Бихан, Джиа Каридес, Марта Дюссельдорп
Описание: События комедийной драмы, Горящий человек разворачиваются в районе современного Сиднея, где в удобном коттедже в зеленом пригороде проживает главный герой фильма Том вместе со своей очаровательной женой Сарой и восьмилетним сыном Оскаром. У него вполне состоявшаяся жизнь, он успешный шеф-повар в своем собственном ресторане на пляже. Но, в жизни главного героя происходит большая трагедия, которая меняет абсолютно все. Том впадает в крайне неуравновешенное состояние и решает, что больше не будет играть по правилам живущего общества и кардинально изменит свою жизнь. Он ищет утешение в чем то необычном, ярком, в сомнительных развлечениях с женщинами и не хочет обращать внимание на попытки друзей, которые пытаются помочь ему справиться с таким горем...
Сэмпл: http://multi-up.com/953714
Тип релиза: BDRip 720p
Контейнер: MKV
Видео: AVC, 1280x544, Constant, 2.35:1, 5596 Kbps, 24.000 fps
Аудио: DTS, 6 channels, 48.0 KHz, 1509 Kbps (English)
Формат субтитров: softsub (SRT)

MediaInfo

GeneralComplete name : burning.man.2011.720p.BDRip.x264.mkvFormat : MatroskaFormat version : Version 2File size : 5.47 GiBDuration : 1h 50mnOverall bit rate : 7 109 KbpsEncoded date : UTC 2014-02-24 02:46:18Writing application : mkvmerge v4.4.0 ('Die Wiederkehr') сборка от Oct 31 2010 21:52:48Writing library : libebml v1.0.0 + libmatroska v1.0.0
VideoID : 1Format : AVCFormat/Info : Advanced Video CodecFormat profile : High@L4.1Format settings, CABAC : YesFormat settings, ReFrames : 5 framesCodec ID : V_MPEG4/ISO/AVCDuration : 1h 50mnBit rate : 5 596 KbpsWidth : 1 280 pixelsHeight : 544 pixelsDisplay aspect ratio : 2.35:1Frame rate mode : ConstantFrame rate : 24.000 fpsColor space : YUVChroma subsampling : 4:2:0Bit depth : 8 bitsScan type : ProgressiveBits/(Pixel*Frame) : 0.335Stream size : 4.20 GiB (77%)Writing library : x264 core 120 r2164 da19765Encoding settings : cabac=1 / ref=5 / deblock=1:0:0 / analyse=0x3:0x133 / me=umh / subme=8 / psy=1 / psy_rd=1.00:0.00 / mixed_ref=1 / me_range=16 / chroma_me=1 / trellis=1 / 8x8dct=1 / cqm=0 / deadzone=21,11 / fast_pskip=0 / chroma_qp_offset=-2 / threads=12 / sliced_threads=0 / nr=0 / decimate=1 / interlaced=0 / bluray_compat=0 / constrained_intra=0 / bframes=3 / b_pyramid=2 / b_adapt=1 / b_bias=0 / direct=1 / weightb=1 / open_gop=0 / weightp=2 / keyint=250 / keyint_min=25 / scenecut=40 / intra_refresh=0 / rc_lookahead=40 / rc=2pass / mbtree=1 / bitrate=5596 / ratetol=1.0 / qcomp=0.60 / qpmin=0 / qpmax=69 / qpstep=4 / cplxblur=20.0 / qblur=0.5 / ip_ratio=1.40 / aq=1:1.00Language : EnglishDefault : YesForced : No
AudioID : 2Format : DTSFormat/Info : Digital Theater SystemsMode : 16Format settings, Endianness : BigCodec ID : A_DTSDuration : 1h 50mnBit rate mode : ConstantBit rate : 1 509 KbpsChannel(s) : 6 channelsChannel positions : Front: L C R, Side: L R, LFESampling rate : 48.0 KHzBit depth : 16 bitsCompression mode : LossyDelay relative to video : 11msStream size : 1.16 GiB (21%)Title : OriginalLanguage : EnglishDefault : YesForced : No
Text #1ID : 3Format : UTF-8Codec ID : S_TEXT/UTF8Codec ID/Info : UTF-8 Plain TextTitle : lingua.pura (RG Translators)Language : RussianDefault : YesForced : No
Text #2ID : 4Format : UTF-8Codec ID : S_TEXT/UTF8Codec ID/Info : UTF-8 Plain TextTitle : English (full)Language : EnglishDefault : NoForced : No

Скриншоты


Скачать

Скачать торрент!

Как скачивать? · Что такое торрент? · Рейтинг и ограничения

Сайт не распространяет и не хранит электронные версии произведений, а лишь предоставляет доступ к создаваемому пользователями каталогу ссылок на торрент-файлы, которые содержат только списки хеш-сумм

[Профиль] [ЛС]
Показать сообщения:    
Ответить на тему

Текущее время: Сегодня 20:12

Часовой пояс: GMT + 4



Вы не можете начинать темы
Вы не можете отвечать на сообщения
Вы не можете редактировать свои сообщения
Вы не можете удалять свои сообщения
Вы не можете голосовать в опросах
Вы не можете прикреплять файлы к сообщениям
Вы не можете скачивать файлы