Пуля / Bullet (Ник Лион / Nick Lyon) [2014, США, Криминал, WEB-DLRip] VO (qwerty) + Sub Eng + Original Eng

Ответить на тему
 
Автор Сообщение

user ®

Стаж: 7 лет 7 месяцев

Сообщений: 20008

Пост Пост: #1 от 24-Фев-2014 12:45

[Цитировать]

Пуля / Bullet
Страна: США
Жанр: Криминал
Год выпуска: 2014
Продолжительность: 01:27:16
Перевод: Одноголосый закадровый (qwerty)
Cубтитры: английские
Оригинальная аудиодорожка: английская
Режиссер: Ник Лион / Nick Lyon
В ролях: Дэнни Трехо, Торстен Фогс, Джонатан Бэнкс, Кайл Вильяловос, Ив Мауро, Шери ДеЯнг, Эрик Блоссом, Джералд Уэбб, Тинсел Кори, Эрик Этебари
Описание: Пуля — это прозвище полицейского, для которого борьба с преступностью является смыслом его жизни. Однажды наркомафия похищает его внука, сама того не понимая, какие неприятности на себя навлекая. Пуля берет закон в свои руки и начинает вершить правосудие
Сэмпл: http://sendfile.su/944954
Качество видео: WEB-DLRip
Формат видео: AVI
Видео: Xvid; 720 х 368 (1.957:1); 1590 Кбит/сек; 23,976 кадра/сек; 0.250
Аудио: Русская дорожка, AC3; 44,1 КГц; 256 Кбит/сек; 2 канала
Аудио 2: Оригинальная английская дорожка, AC3; 48 КГц; 224 Кбит/сек; 2 канала
Формат субтитров: softsub (SRT)
Дополнительная информация: премьера в мире 07.03.2014 г, в России: 29.05.2014 г

MediaInfo

Формат : AVI
Формат/Информация : Audio Video Interleave
Размер файла : 1,27 Гбайт
Продолжительность : 1 ч. 27 м.
Общий поток : 2084 Кбит/сек
Программа кодирования : VirtualDubMod 1.5.10.2 (build 2540/release)
Библиотека кодирования : VirtualDubMod build 2540/release
Видео
Идентификатор : 0
Формат : xvid
Идентификатор кодека : xvid
Продолжительность : 1 ч. 27 м.
Битрейт : 1590 Кбит/сек
Ширина : 720 пикселей
Высота : 368 пикселей
Соотношение сторон : 1,957
Частота кадров : 23,976 кадра/сек
Бит/(Пиксели*Кадры) : 0.250
Размер потока : 993 Мбайт (76%)
Аудио #1
Идентификатор : 1
Формат : AC-3
Формат/Информация : Audio Coding 3
Расширение режима : CM (complete main)
Параметр Endianness формата : Big
Идентификатор кодека : 2000
Продолжительность : 1 ч. 27 м.
Вид битрейта : Постоянный
Битрейт : 256 Кбит/сек
Каналы : 2 канала
Расположение каналов : Front: L R
Частота : 44,1 КГц
Битовая глубина : 16 бит
Метод сжатия : С потерями
Размер потока : 160 Мбайт (12%)
Выравнивание : Разделение по промежуткам
Продолжительность промежутка : 42 мс. (1,00 видеокадр)
Время предзагрузки промежутка : 500 мс.
Аудио #2
Идентификатор : 2
Формат : AC-3
Формат/Информация : Audio Coding 3
Расширение режима : CM (complete main)
Параметр Endianness формата : Big
Идентификатор кодека : 2000
Продолжительность : 1 ч. 27 м.
Вид битрейта : Постоянный
Битрейт : 224 Кбит/сек
Каналы : 2 канала
Расположение каналов : Front: L R
Частота : 48,0 КГц
Битовая глубина : 16 бит
Метод сжатия : С потерями
Размер потока : 140 Мбайт (11%)
Выравнивание : Разделение по промежуткам
Продолжительность промежутка : 42 мс. (1,00 видеокадр)
Время предзагрузки промежутка : 500 мс.

Скриншот c названием фильма

Скриншоты

Скачать

Скачать торрент!

Как скачивать? · Что такое торрент? · Рейтинг и ограничения

Сайт не распространяет и не хранит электронные версии произведений, а лишь предоставляет доступ к создаваемому пользователями каталогу ссылок на торрент-файлы, которые содержат только списки хеш-сумм

[Профиль] [ЛС]
Показать сообщения:    
Ответить на тему

Текущее время: Сегодня 01:13

Часовой пояс: GMT + 4



Вы не можете начинать темы
Вы не можете отвечать на сообщения
Вы не можете редактировать свои сообщения
Вы не можете удалять свои сообщения
Вы не можете голосовать в опросах
Вы не можете прикреплять файлы к сообщениям
Вы не можете скачивать файлы