Малолетка / Jailbait (Джаред Кон / Jared Cohn) [2012, США, триллер, драма, криминал, WEB-DL 720p] VO + Original (Eng) + Sub (eng)

Ответить на тему
 
Автор Сообщение

user ®

Стаж: 7 лет 7 месяцев

Сообщений: 20008

Пост Пост: #1 от 23-Фев-2014 22:10

[Цитировать]

Малолетка
Jailbait
Страна: США
Год выпуска: 2013
Жанр: триллер, драма, криминал
Продолжительность: 01:26:05
Перевод: Одноголосый закадровый - Xixidok
русские субтитры: нет-Режиссёр: Джаред Кон : Jared Cohn
В главных ролях: Саманта Кардона, Сара Малакул Лэйн, Эрин О’Брайэн, Дженнифер Джейкобс, Ребекка Роули, Николь Александра Шипли, Баррет Перлман, Тэмми Клейн, Диана Дейнджер, Хирам А. Мюррэй-Описание: После непредумышленного убийства отчима, который по пьяни пытался изнасиловать несовершеннолетнюю Анну, она попадает в колонию для несовершеннолетних, на 4 года. Там, пытаясь отстоять свою независимость, она подвергается террору со стороны белых сук, черных сук и извращенца, начальника тюрьмы.- -Качество: WEB-DL 720p
Формат: MKV
Видео кодек: AVC
Аудио кодек: АС3
Видео: 1280x720, 23.976 fps, ~3 882 kbps avg, 0.176 bit/pixel
Аудио #1: [RUS] 48 kHz, AC3 Dolby Digital, 2/0 (L,R) ch, ~192 kbps
Аудио #2: [ENG] 48 kHz, AC3 Dolby Digital, 3/2 (L,C,R,l,r) + LFE ch, ~384 kbps
субтитры: английские
навигация по главам: 13 глав (именные)

скриншоты


MediaInfo

Общее
Уникальный идентификатор : 225541308035899502024700583510528473894 (0xA9ADAD06C03A74069BC279AF0AABBB26)
Полное имя : D:\Фильмы\Малолетка\Jailbait.2013.WEB-DL 720p.mkv
Формат : Matroska
Версия формата : Version 4 / Version 2
Размер файла : 2,85 Гбайт
Продолжительность : 1 ч. 29 м.
Общий поток : 4549 Кбит/сек
Дата кодирования : UTC 2014-02-22 20:11:19
Программа кодирования : mkvmerge v6.7.0 ('Back to the Ground') 32bit built on Jan 8 2014 15:03:17
Библиотека кодирования : libebml v1.3.0 + libmatroska v1.4.1
Видео
Идентификатор : 1
Формат : AVC
Формат/Информация : Advanced Video Codec
Профиль формата : High@L3.1
Параметр CABAC формата : Нет
Параметр ReFrames формата : 2 кадра
Идентификатор кодека : V_MPEG4/ISO/AVC
Продолжительность : 1 ч. 29 м.
Битрейт : 3882 Кбит/сек
Ширина : 1280 пикселей
Высота : 720 пикселей
Соотношение сторон : 16:9
Режим частоты кадров : Постоянный
Частота кадров : 23,976 кадра/сек
Цветовое пространство : YUV
Субдискретизация насыщенности : 4:2:0
Битовая глубина : 8 бит
Тип развёртки : Прогрессивная
Бит/(Пиксели*Кадры) : 0.176
Размер потока : 2,43 Гбайт (85%)
Язык : English
Default : Да
Forced : Нет
Основные цвета : BT.709
Характеристики трансфера : BT.709
Коэффициенты матрицы : BT.709
Аудио #1
Идентификатор : 2
Формат : AC-3
Формат/Информация : Audio Coding 3
Расширение режима : CM (complete main)
Параметр Endianness формата : Big
Идентификатор кодека : A_AC3
Продолжительность : 1 ч. 29 м.
Вид битрейта : Постоянный
Битрейт : 192 Кбит/сек
Каналы : 2 канала
Расположение каналов : Front: L R
Частота : 48,0 КГц
Битовая глубина : 16 бит
Метод сжатия : С потерями
Размер потока : 123 Мбайт (4%)
Заголовок : VO [Xixidok]
Язык : Russian
Default : Да
Forced : Нет
Аудио #2
Идентификатор : 3
Формат : AC-3
Формат/Информация : Audio Coding 3
Расширение режима : CM (complete main)
Параметр Endianness формата : Big
Идентификатор кодека : A_AC3
Продолжительность : 1 ч. 29 м.
Вид битрейта : Постоянный
Битрейт : 384 Кбит/сек
Каналы : 6 каналов
Расположение каналов : Front: L C R, Side: L R, LFE
Частота : 48,0 КГц
Битовая глубина : 16 бит
Метод сжатия : С потерями
Размер потока : 246 Мбайт (8%)
Заголовок : ENG
Язык : English
Default : Нет
Forced : Нет
Текст
Идентификатор : 4
Формат : UTF-8
Идентификатор кодека : S_TEXT/UTF8
Идентификатор кодека/Информация : UTF-8 Plain Text
Заголовок : Eng Sub
Язык : English
Default : Нет
Forced : Нет
Меню
00:00:00.000 : en:Betrayed
00:07:59.000 : en:New Friends
00:14:34.000 : en:Help Me To Help You
00:22:42.000 : en:Picking The Fights
00:31:30.000 : en:Abandon
00:38:15.000 : en:Bliss
00:45:36.000 : en:Breaking The System
00:53:26.000 : en:The Ward
01:00:07.000 : en:Revenge
01:07:47.000 : en:The Warden
01:12:45.000 : en:Aftermath
01:19:49.000 : en:Freedom
01:25:48.000 : en:Credits
Скачать

Скачать торрент!

Как скачивать? · Что такое торрент? · Рейтинг и ограничения

Сайт не распространяет и не хранит электронные версии произведений, а лишь предоставляет доступ к создаваемому пользователями каталогу ссылок на торрент-файлы, которые содержат только списки хеш-сумм

[Профиль] [ЛС]
Показать сообщения:    
Ответить на тему

Текущее время: Сегодня 07:02

Часовой пояс: GMT + 4



Вы не можете начинать темы
Вы не можете отвечать на сообщения
Вы не можете редактировать свои сообщения
Вы не можете удалять свои сообщения
Вы не можете голосовать в опросах
Вы не можете прикреплять файлы к сообщениям
Вы не можете скачивать файлы