Жизнь Пи / Life of Pi (Энг Ли / Ang Lee) [2012 г., США, Китай, драма, приключения, BDRip 720p] Dub + Sub Rus, Eng + Original Eng

Ответить на тему
 
Автор Сообщение

user ®

Стаж: 7 лет 7 месяцев

Сообщений: 20008

Пост Пост: #1 от 23-Фев-2014 22:10

[Цитировать]

Жизнь Пи / Life of PiГод выпуска: 2012
Страна: США, Китай
Жанр: драма, приключения
Продолжительность: 02:06:59
Перевод: дублированный [лицензия]
Субтитры: русские (Full, Forced), английские (Full, Forced)
Режиссер:
  • Энг Ли / Ang Lee
В ролях:
  • Сурадж Шарма, Ирфан Кхан, Табу, Рейф Сполл, Жерар Депардье, Аюш Тандон, Гаутам Белур, Адиль Хуссэйн, Аян Кхан, Мохд Аббас Халили, Джеймс Саито
Описание:
Главный герой фильма оказывается на шлюпке посреди океана в компании неожиданного попутчика — грозного бенгальского тигра.

Качество: BDRip 720p [EbP]
Формат: MKV
Видео кодек: x264
Аудио кодек: DTS
Видео: 1280x692, 23.976 fps, 0.343 bit/pixel, 7 292 Kbps
Аудио: 48.0 KHz, DTS, 5.1 ch (L,C,R,l,r) + LFE, 768 kbps |Blu-ray CEE|
Аудио: 48.0 KHz, DTS, 5.1 ch (L,C,R,l,r) + LFE, 1536 kbps |Оригинал|

MediaInfo

Код:
General
Unique ID : 187712132107433178815608742725151020353 (0x8D380AA748A56E39984E727A7FD6D541)
Complete name : Life_of_Pi.mkv
Format : Matroska
Format version : Version 4 / Version 2
File size : 8.66 GiB
Duration : 2h 6mn
Overall bit rate : 9 763 Kbps
Movie name : EbP
Encoded date : UTC 2010-02-22 21:41:31
Writing application : mkvmerge v5.9.0 ('On The Loose') built on Dec 9 2012 15:37:01
Writing library : libebml v1.3.0 + libmatroska v1.4.0
Video
ID : 1
Format : AVC
Format/Info : Advanced Video Codec
Format profile : High@L4.1
Format settings, CABAC : Yes
Format settings, ReFrames : 9 frames
Codec ID : V_MPEG4/ISO/AVC
Duration : 2h 6mn
Bit rate : 7 292 Kbps
Width : 1 280 pixels
Height : 692 pixels
Display aspect ratio : 1.85:1
Frame rate mode : Constant
Frame rate : 23.976 fps
Color space : YUV
Chroma subsampling : 4:2:0
Bit depth : 8 bits
Scan type : Progressive
Bits/(Pixel*Frame) : 0.343
Stream size : 6.47 GiB (75%)
Title : Жизнь Пи | Life of Pi
Writing library : x264 core 129 r2245 bc13772
Encoding settings : cabac=1 / ref=9 / deblock=1:-3:-3 / analyse=0x3:0x113 / me=tesa / subme=10 / psy=1 / psy_rd=0.90:0.00 / mixed_ref=1 / me_range=16 / chroma_me=1 / trellis=2 / 8x8dct=1 / cqm=0 / deadzone=21,11 / fast_pskip=0 / chroma_qp_offset=-2 / threads=12 / lookahead_threads=2 / sliced_threads=0 / nr=0 / decimate=0 / interlaced=0 / bluray_compat=0 / constrained_intra=0 / bframes=7 / b_pyramid=2 / b_adapt=2 / b_bias=0 / direct=3 / weightb=1 / open_gop=0 / weightp=2 / keyint=250 / keyint_min=23 / scenecut=40 / intra_refresh=0 / rc=crf / mbtree=0 / crf=15.5 / qcomp=0.50 / qpmin=0 / qpmax=69 / qpstep=4 / ip_ratio=1.40 / pb_ratio=1.30 / aq=1:0.90
Language : English
Default : Yes
Forced : Yes
Matrix coefficients : BT.709-5, BT.1361, IEC 61966-2-4 709, SMPTE RP177
Audio #1
ID : 2
Format : DTS
Format/Info : Digital Theater Systems
Mode : 16
Format settings, Endianness : Big
Codec ID : A_DTS
Duration : 2h 6mn
Bit rate mode : Constant
Bit rate : 768 Kbps
Channel(s) : 6 channels
Channel positions : Front: L C R, Side: L R, LFE
Sampling rate : 48.0 KHz
Bit depth : 24 bits
Compression mode : Lossy
Stream size : 698 MiB (8%)
Title : Дубляж Blu-ray CEE
Language : Russian
Default : Yes
Forced : Yes
Audio #2
ID : 3
Format : DTS
Format/Info : Digital Theater Systems
Format profile : ES
Mode : 16
Format settings, Endianness : Big
Codec ID : A_DTS
Duration : 2h 6mn
Bit rate mode : Constant
Bit rate : 1 509 Kbps
Channel(s) : 6 channels
Channel positions : Front: L C R, Side: L R, LFE
Sampling rate : 48.0 KHz
Bit depth : 24 bits
Compression mode : Lossy
Stream size : 1.34 GiB (15%)
Title : Оригинал
Language : English
Default : No
Forced : No
Text #1
ID : 4
Format : UTF-8
Codec ID : S_TEXT/UTF8
Codec ID/Info : UTF-8 Plain Text
Title : Full
Language : Russian
Default : No
Forced : No
Text #2
ID : 5
Format : UTF-8
Codec ID : S_TEXT/UTF8
Codec ID/Info : UTF-8 Plain Text
Title : Forced
Language : Russian
Default : Yes
Forced : No
Text #3
ID : 6
Format : UTF-8
Codec ID : S_TEXT/UTF8
Codec ID/Info : UTF-8 Plain Text
Title : Full
Language : English
Default : No
Forced : No
Text #4
ID : 7
Format : UTF-8
Codec ID : S_TEXT/UTF8
Codec ID/Info : UTF-8 Plain Text
Title : Forced
Language : English
Default : No
Forced : No
Menu
00:00:00.000 : en:00:00:00.000
00:03:58.822 : en:00:03:58.822
00:11:13.172 : en:00:11:13.172
00:15:24.924 : en:00:15:24.924
00:21:29.622 : en:00:21:29.622
00:25:44.543 : en:00:25:44.543
00:29:46.827 : en:00:29:46.827
00:31:31.014 : en:00:31:31.014
00:35:34.299 : en:00:35:34.299
00:45:24.347 : en:00:45:24.347
00:50:21.894 : en:00:50:21.894
00:54:13.333 : en:00:54:13.333
00:57:18.352 : en:00:57:18.352
01:00:07.395 : en:01:00:07.395
01:04:12.057 : en:01:04:12.057
01:09:32.085 : en:01:09:32.085
01:11:48.054 : en:01:11:48.054
01:13:34.285 : en:01:13:34.285
01:16:47.561 : en:01:16:47.561
01:21:31.178 : en:01:21:31.178
01:23:10.027 : en:01:23:10.027
01:26:30.852 : en:01:26:30.852
01:31:21.434 : en:01:31:21.434
01:34:13.857 : en:01:34:13.857
01:43:42.675 : en:01:43:42.675
01:47:38.661 : en:01:47:38.661
01:55:20.080 : en:01:55:20.080
01:59:16.274 : en:01:59:16.274

Скриншоты


Скачать

Скачать торрент!

Как скачивать? · Что такое торрент? · Рейтинг и ограничения

Сайт не распространяет и не хранит электронные версии произведений, а лишь предоставляет доступ к создаваемому пользователями каталогу ссылок на торрент-файлы, которые содержат только списки хеш-сумм

[Профиль] [ЛС]
Показать сообщения:    
Ответить на тему

Текущее время: Сегодня 10:04

Часовой пояс: GMT + 4



Вы не можете начинать темы
Вы не можете отвечать на сообщения
Вы не можете редактировать свои сообщения
Вы не можете удалять свои сообщения
Вы не можете голосовать в опросах
Вы не можете прикреплять файлы к сообщениям
Вы не можете скачивать файлы