Быстрее, чем кролики (Дмитрий Дьяченко) [2013, Комедия, пародия, трагифарс, BDRip-AVC]

Ответить на тему
 
Автор Сообщение

user ®

Стаж: 7 лет 7 месяцев

Сообщений: 20008

Пост Пост: #1 от 23-Фев-2014 22:10

[Цитировать]

Быстрее, чем кролики Жанр: Комедия, пародия, трагифарс
Год выпуска: 2013
Продолжительность: 01:35:44
Режиссёр: Дмитрий Дьяченко
В ролях: Леонид Барац, Ростислав Хаит, Камиль Ларин, Александр Демидов, Игорь Золотовицкий, Артём Смола, Нонна Гришаева, Дмитрий Дибров, Екатерина Кузнецова, Валдис Пельш, Григорий Данцигер, Сергей Фролов, Александр Пальчиков, Алексей Шаранин, Станислав Богатырёв, Сергей Померанцев
Описание: Трое друзей после бурной вечеринки просыпаются в совершенно незнакомом месте в компании незнакомых людей и пытаются понять, как они здесь оказались, кто все эти люди, и что на самом деле произошло накануне…
Качество видео: BDRip-AVC
Формат видео: MKV
Видео: 1024x428 (2.40:1), 24 fps, MPEG-4 AVc ~2810 kbps avg, 0.267 bit/pixel
Аудио: 48 kHz, AC3 Dolby Digital, 3/2 (L,C,R,l,r) + LFE ch, ~448 kbps

Автор: nnlabetik

Семпл

x264|Mi

x264 [info]


x264 [info]: frame I:575 Avg QP:12.80 size: 80589
x264 [info]: frame P:31088 Avg QP:15.70 size: 29923
x264 [info]: frame B:106209 Avg QP:17.35 size: 9798
x264 [info]: consecutive B-frames: 1.9% 2.9% 5.9% 33.7% 18.8% 21.6% 6.4% 2.5% 3.0% 0.9% 2.4%
x264 [info]: mb I I16..4: 100.0% 0.0% 0.0%
x264 [info]: mb P I16..4: 17.4% 0.0% 0.0% P16..4: 75.8% 0.0% 0.0% 0.0% 0.0% skip: 6.8%
x264 [info]: mb B I16..4: 1.1% 0.0% 0.0% B16..8: 56.2% 0.0% 0.0% direct:11.6% skip:31.1% L0:38.8% L1:44.1% BI:17.1%
x264 [info]: direct mvs spatial:97.3% temporal:2.7%
x264 [info]: coded y,uvDC,uvAC intra: 75.7% 85.1% 70.1% inter: 30.4% 36.1% 12.5%
x264 [info]: i16 v,h,dc,p: 22% 16% 10% 52%
x264 [info]: i8c dc,h,v,p: 52% 18% 19% 10%
x264 [info]: ref P L0: 50.3% 18.1% 10.3% 6.6% 5.4% 4.5% 4.4% 0.3%
x264 [info]: ref B L0: 63.7% 14.8% 8.6% 5.3% 4.3% 2.3% 1.0%
x264 [info]: ref B L1: 88.6% 11.4%
x264 [info]: kb/s:2809.20
Общее
Уникальный идентификатор : 184353678231003743611434496871234009134 (0x8AB13A17D79570A684EA211992F7F82E)
Полное имя : H:\Быстрее, чем кролики 2013\Bystree.chem.kroliki_ 2013.576p.BluRay.mkv
Формат : Matroska
Версия формата : Version 4 / Version 2
Размер файла : 2,18 Гбайт
Продолжительность : 1 ч. 35 м.
Общий поток : 3259 Кбит/сек
Название фильма : Быстрее, чем кролики / 2013 -=NN@LIFE=-
Дата кодирования : UTC 2014-02-22 06:53:29
Программа кодирования : mkvmerge v6.7.0 ('Back to the Ground') 32bit built on Jan 8 2014 15:03:17
Библиотека кодирования : libebml v1.3.0 + libmatroska v1.4.1
Видео
Идентификатор : 1
Формат : AVC
Формат/Информация : Advanced Video Codec
Профиль формата : Main@L4.1
Параметр CABAC формата : Нет
Параметр ReFrames формата : 8 кадров
Идентификатор кодека : V_MPEG4/ISO/AVC
Продолжительность : 1 ч. 35 м.
Битрейт : 2810 Кбит/сек
Ширина : 1024 пикселя
Высота : 428 пикселей
Соотношение сторон : 2,40:1
Режим частоты кадров : Постоянный
Частота кадров : 24,000 кадра/сек
Цветовое пространство : YUV
Субдискретизация насыщенности : 4:2:0
Битовая глубина : 8 бит
Тип развёртки : Прогрессивная
Бит/(Пиксели*Кадры) : 0.267
Размер потока : 1,84 Гбайт (84%)
Заголовок : Rip by nnlabetik
Библиотека кодирования : x264 core 140 r2377 1ca7bb9
Настройки программы : cabac=0 / ref=8 / deblock=1:-2:-1 / analyse=0:0 / me=umh / subme=11 / psy=1 / psy_rd=1.00:0.00 / mixed_ref=0 / me_range=32 / chroma_me=1 / trellis=2 / 8x8dct=0 / cqm=0 / deadzone=21,11 / fast_pskip=1 / chroma_qp_offset=-2 / threads=4 / lookahead_threads=1 / sliced_threads=0 / nr=0 / decimate=1 / interlaced=0 / bluray_compat=0 / constrained_intra=0 / bframes=10 / b_pyramid=2 / b_adapt=2 / b_bias=0 / direct=3 / weightb=0 / open_gop=0 / weightp=0 / keyint=240 / keyint_min=23 / scenecut=0 / intra_refresh=0 / rc_lookahead=0 / rc=2pass / mbtree=0 / bitrate=2810 / ratetol=1.0 / qcomp=0.60 / qpmin=0 / qpmax=69 / qpstep=4 / cplxblur=20.0 / qblur=0.5 / vbv_maxrate=50000 / vbv_bufsize=62500 / nal_hrd=none / filler=0 / ip_ratio=1.40 / pb_ratio=1.30 / aq=1:0.80
Язык : Russian
Default : Да
Forced : Нет
Аудио
Идентификатор : 2
Формат : AC-3
Формат/Информация : Audio Coding 3
Расширение режима : CM (complete main)
Параметр Endianness формата : Big
Идентификатор кодека : A_AC3
Продолжительность : 1 ч. 35 м.
Вид битрейта : Постоянный
Битрейт : 448 Кбит/сек
Каналы : 6 каналов
Расположение каналов : Front: L C R, Side: L R, LFE
Частота : 48,0 КГц
Битовая глубина : 16 бит
Метод сжатия : С потерями
Размер потока : 307 Мбайт (14%)
Язык : Russian
Default : Да
Forced : Нет
Меню
00:00:00.000 : en:Chapter 01
00:00:04.000 : en:Chapter 02
00:12:41.875 : en:Chapter 03
00:25:06.875 : en:Chapter 04
00:36:01.166 : en:Chapter 05
00:48:11.416 : en:Chapter 06
00:55:53.666 : en:Chapter 07
01:11:01.375 : en:Chapter 08
01:24:11.750 : en:Chapter 09

Скриншоты

Скачать

Скачать торрент!

Как скачивать? · Что такое торрент? · Рейтинг и ограничения

Сайт не распространяет и не хранит электронные версии произведений, а лишь предоставляет доступ к создаваемому пользователями каталогу ссылок на торрент-файлы, которые содержат только списки хеш-сумм

[Профиль] [ЛС]
Показать сообщения:    
Ответить на тему

Текущее время: Сегодня 16:43

Часовой пояс: GMT + 4



Вы не можете начинать темы
Вы не можете отвечать на сообщения
Вы не можете редактировать свои сообщения
Вы не можете удалять свои сообщения
Вы не можете голосовать в опросах
Вы не можете прикреплять файлы к сообщениям
Вы не можете скачивать файлы