Прометей / Prometheus (Ридли Скотт / Ridley Scott) [2012 г., США, Великобритания, фантастика, триллер, приключения, BDRemux 1080p] Dub + AVO (Гаврилов) + VO (zamez) + Original (eng) + Sub (rus, ukr, eng) + Ukr + Comm

Ответить на тему
 
Автор Сообщение

user ®

Стаж: 7 лет 7 месяцев

Сообщений: 20008

Пост Пост: #1 от 23-Фев-2014 16:40

[Цитировать]

Прометей / Prometheus «Они искали колыбель человечества, но нашли его погибель»
Страна: США, Великобритания
Жанр: фантастика, триллер, приключения
Год выпуска: 2012
Продолжительность: 02:03:46-Перевод: Профессиональный (дублированный)
Перевод 1: Авторский (одноголосый закадровый) Гаврилов
Перевод 2: Одноголосый закадровый Замез
Cубтитры: Russian (Forced), Russian (BD, Voronine, 107miller, Stevvie), Russian (Commentary #1, Commentary #2), Ukrainian (Forced, Full), English (Full, SDH)
Оригинальная аудиодорожка: English-Режиссер: Ридли Скотт / Ridley Scott
В ролях: Нуми Рапас, Майкл Фассбендер, Шарлиз Терон, Идрис Эльба, Гай Пирс, Логан Маршалл-Грин, Шон Харрис, Рейф Сполл, Иман Эллиотт, Бенедикт Вонг-Описание: В поисках сакрального знания группа ученых отправляется в самые темные и неизведанные чертоги вселенной. Именно там, в отдаленных мирах, находясь на пределе своих умственных и физических возможностей, им предстоит вступить в безжалостную схватку за будущее всего человечества...- -Качество: BDRemux 1080p
Контейнер: MKV
Видео: H.264, 1920x1080, 23,976 fps, 28333 kbps
Аудио #1: Russian: DTS 5.1, 48 kHz, 768 kbps avg |Дубляж, Blu-ray EUR|
Аудио #2: Russian: DTS-HD MA 7.1, 48 kHz, 5020 kbps avg (DTS Core: 5.1 / 48 kHz / 1509 kbps) |Одноголосый закадровый, А. Гаврилов|
Аудио #3: Russian: DTS-HD MA 7.1, 48 kHz, 5012 kbps avg (DTS Core: 5.1 / 48 kHz / 1509 kbps) |Одноголосый закадровый, В. Замез|
Аудио #4: Ukrainian: AC3 5.1, 48 kHz, 448 kbps avg |Дубляж, Blu-ray EUR|
Аудио #5: English: DTS-HD MA 7.1, 48 kHz, 4984 kbps avg (DTS Core: 5.1 / 48 kHz / 1509 kbps)
Аудио #6: English: AC3 2.0, 48 kHz, 224 kbps avg |Commentary #1 (Ридли Скотт)|
Аудио #7: English: AC3 2.0, 48 kHz, 224 kbps avg |Commentary #2 (Джон Спэйтс)|
Формат субтитров: softsub (SRT)
• За работу с дорогой А. Гаврилова спасибо Slimka
• За появление перевода А. Гаврилова спасибо участникам Пиратки: Джосс, dunhill200, lexal2002, Chistobaev, LAVR, SavineX, Slimka, Daniel Rock, Pain_70, Guyver, pestel, GaryH, КириллВП, Linnan, эвоки, TvarYuri, Dr. Destructo, GansAn, farti, therox, Perusta, Anatoliy555, Loki1982, Bakuman, zetrob, chef&chef, Architector44, _shurik_, avedon, rocky4, ZeDOK, shitman82, skrdma, _long_, Andrey_Tula, audiolubitel, eyrobot, kondratdoktor, myxamop, kix, denis_mgn_1987, Consul, skib, Rolly Tyler, fly32.
• За появление перевода В. Замеза спасибо В. Замезу.
Всем огромное спасибо!

MediaInfo

General
Unique ID : 230629025669745215598032675734070505981 (0xAD8188DF5C77CA8892E221C53F0431FD)
Complete name : D:\Prometheus.2012.BDRemux.mkv
Format : Matroska
File size : 38.9 GiB
Duration : 2h 3mn
Overall bit rate : 45.0 Mbps
Movie name : Прометей
Encoded date : UTC 2012-12-28 15:47:49
Writing application : mkvmerge v5.1.0 ('And so it goes') built on Nov 28 2011 23:58:28
Writing library : libebml v1.2.3 + libmatroska v1.3.0
Attachment : Yes / Yes
Video
ID : 1
Format : AVC
Format/Info : Advanced Video Codec
Format profile : High@L4.1
Format settings, CABAC : Yes
Format settings, ReFrames : 2 frames
Codec ID : V_MPEG4/ISO/AVC
Duration : 2h 3mn
Bit rate mode : Variable
Bit rate : 37.7 Mbps
Width : 1 920 pixels
Height : 1 080 pixels
Display aspect ratio : 16:9
Frame rate : 23.976 fps
Color space : YUV
Chroma subsampling : 4:2:0
Bit depth : 8 bits
Scan type : Progressive
Bits/(Pixel*Frame) : 0.758
Stream size : 32.6 GiB (84%)
Title : Прометей
Language : English
Audio #1
ID : 2
Format : DTS
Format/Info : Digital Theater Systems
Codec ID : A_DTS
Duration : 2h 3mn
Bit rate mode : Constant
Bit rate : 755 Kbps
Channel(s) : 6 channels
Channel positions : Front: L C R, Side: L R, LFE
Sampling rate : 48.0 KHz
Bit depth : 24 bits
Compression mode : Lossy
Stream size : 668 MiB (2%)
Title : DTS - Дубляж (Blu-ray EUR)
Language : Russian
Audio #2
ID : 3
Format : DTS
Format/Info : Digital Theater Systems
Format profile : MA / Core
Codec ID : A_DTS
Duration : 2h 3mn
Bit rate mode : Variable
Bit rate : 1 597 Kbps / 1 510 Kbps
Channel(s) : 8 channels / 6 channels
Channel positions : Front: L C R, Side: L R, Back: L R, LFE / Front: L C R, Side: L R, LFE
Sampling rate : 48.0 KHz
Bit depth : 24 bits
Compression mode : Lossless / Lossy
Title : DTS-HD - AVO (А. Гаврилов)
Language : Russian
Audio #3
ID : 4
Format : DTS
Format/Info : Digital Theater Systems
Format profile : MA / Core
Codec ID : A_DTS
Duration : 2h 3mn
Bit rate mode : Variable
Bit rate : 1 597 Kbps / 1 510 Kbps
Channel(s) : 8 channels / 6 channels
Channel positions : Front: L C R, Side: L R, Back: L R, LFE / Front: L C R, Side: L R, LFE
Sampling rate : 48.0 KHz
Bit depth : 24 bits
Compression mode : Lossless / Lossy
Title : DTS-HD - AVO (В. Замез)
Language : Russian
Audio #4
ID : 5
Format : AC-3
Format/Info : Audio Coding 3
Mode extension : CM (complete main)
Codec ID : A_AC3
Duration : 2h 3mn
Bit rate mode : Constant
Bit rate : 448 Kbps
Channel(s) : 6 channels
Channel positions : Front: L C R, Side: L R, LFE
Sampling rate : 48.0 KHz
Bit depth : 16 bits
Compression mode : Lossy
Stream size : 397 MiB (1%)
Title : AC3 - Дубляж (Blu-ray EUR)
Language : Ukrainian
Audio #5
ID : 6
Format : DTS
Format/Info : Digital Theater Systems
Format profile : MA / Core
Codec ID : A_DTS
Duration : 2h 3mn
Bit rate mode : Variable
Bit rate : 1 597 Kbps / 1 510 Kbps
Channel(s) : 8 channels / 6 channels
Channel positions : Front: L C R, Side: L R, Back: L R, LFE / Front: L C R, Side: L R, LFE
Sampling rate : 48.0 KHz
Bit depth : 24 bits
Compression mode : Lossless / Lossy
Title : DTS-HD
Language : English
Audio #6
ID : 7
Format : AC-3
Format/Info : Audio Coding 3
Mode extension : CM (complete main)
Codec ID : A_AC3
Duration : 2h 3mn
Bit rate mode : Constant
Bit rate : 224 Kbps
Channel(s) : 2 channels
Channel positions : Front: L R
Sampling rate : 48.0 KHz
Bit depth : 16 bits
Compression mode : Lossy
Stream size : 198 MiB (0%)
Title : AC3 - Commentary #1 (Ridley Scott)
Language : English
Audio #7
ID : 8
Format : AC-3
Format/Info : Audio Coding 3
Mode extension : CM (complete main)
Codec ID : A_AC3
Duration : 2h 3mn
Bit rate mode : Constant
Bit rate : 224 Kbps
Channel(s) : 2 channels
Channel positions : Front: L R
Sampling rate : 48.0 KHz
Bit depth : 16 bits
Compression mode : Lossy
Stream size : 198 MiB (0%)
Title : AC3 - Commentary #2 (Jon Spaihts, Damon Lindelof)
Language : English
Text #1
ID : 9
Format : UTF-8
Codec ID : S_TEXT/UTF8
Codec ID/Info : UTF-8 Plain Text
Title : Forced
Language : Russian
Text #2
ID : 10
Format : UTF-8
Codec ID : S_TEXT/UTF8
Codec ID/Info : UTF-8 Plain Text
Title : BD
Language : Russian
Text #3
ID : 11
Format : UTF-8
Codec ID : S_TEXT/UTF8
Codec ID/Info : UTF-8 Plain Text
Title : Voronine
Language : Russian
Text #4
ID : 12
Format : UTF-8
Codec ID : S_TEXT/UTF8
Codec ID/Info : UTF-8 Plain Text
Title : 107miller
Language : Russian
Text #5
ID : 13
Format : UTF-8
Codec ID : S_TEXT/UTF8
Codec ID/Info : UTF-8 Plain Text
Title : Stevvie
Language : Russian
Text #6
ID : 14
Format : UTF-8
Codec ID : S_TEXT/UTF8
Codec ID/Info : UTF-8 Plain Text
Title : Commentary #1 (Ridley Scott)
Language : Russian
Text #7
ID : 15
Format : UTF-8
Codec ID : S_TEXT/UTF8
Codec ID/Info : UTF-8 Plain Text
Title : Commentary #2 (Jon Spaihts, Damon Lindelof)
Language : Russian
Text #8
ID : 16
Format : UTF-8
Codec ID : S_TEXT/UTF8
Codec ID/Info : UTF-8 Plain Text
Title : Forced
Language : Ukrainian
Text #9
ID : 17
Format : UTF-8
Codec ID : S_TEXT/UTF8
Codec ID/Info : UTF-8 Plain Text
Title : BD
Language : Ukrainian
Text #10
ID : 18
Format : UTF-8
Codec ID : S_TEXT/UTF8
Codec ID/Info : UTF-8 Plain Text
Title : Full
Language : English
Text #11
ID : 19
Format : UTF-8
Codec ID : S_TEXT/UTF8
Codec ID/Info : UTF-8 Plain Text
Title : SDH
Language : English
Menu
00:00:00.000 : en:Chapter 1
00:05:13.146 : en:Chapter 2
00:07:44.881 : en:Chapter 3
00:11:31.524 : en:Chapter 4
00:15:09.784 : en:Chapter 5
00:20:04.912 : en:Chapter 6
00:22:32.810 : en:Chapter 7
00:27:43.120 : en:Chapter 8
00:31:57.833 : en:Chapter 9
00:34:10.840 : en:Chapter 10
00:37:53.229 : en:Chapter 11
00:40:45.360 : en:Chapter 12
00:45:49.330 : en:Chapter 13
00:48:47.925 : en:Chapter 14
00:50:23.062 : en:Chapter 15
00:53:56.400 : en:Chapter 16
00:56:32.222 : en:Chapter 17
00:59:31.610 : en:Chapter 18
01:01:29.185 : en:Chapter 19
01:04:17.562 : en:Chapter 20
01:06:01.457 : en:Chapter 21
01:08:57.884 : en:Chapter 22
01:11:13.519 : en:Chapter 23
01:15:10.631 : en:Chapter 24
01:17:06.038 : en:Chapter 25
01:25:02.306 : en:Chapter 26
01:27:09.349 : en:Chapter 27
01:30:10.363 : en:Chapter 28
01:32:43.725 : en:Chapter 29
01:35:23.134 : en:Chapter 30
01:37:46.861 : en:Chapter 31
01:40:46.374 : en:Chapter 32
01:43:46.220 : en:Chapter 33
01:48:28.794 : en:Chapter 34
01:52:08.096 : en:Chapter 35
01:58:06.288 : en:Chapter 36

Скриншоты

Скачать

Скачать торрент!

Как скачивать? · Что такое торрент? · Рейтинг и ограничения

Сайт не распространяет и не хранит электронные версии произведений, а лишь предоставляет доступ к создаваемому пользователями каталогу ссылок на торрент-файлы, которые содержат только списки хеш-сумм

[Профиль] [ЛС]
Показать сообщения:    
Ответить на тему

Текущее время: Сегодня 10:03

Часовой пояс: GMT + 4



Вы не можете начинать темы
Вы не можете отвечать на сообщения
Вы не можете редактировать свои сообщения
Вы не можете удалять свои сообщения
Вы не можете голосовать в опросах
Вы не можете прикреплять файлы к сообщениям
Вы не можете скачивать файлы