Осенний детектив (Иван Павлов) [2002, Триллер, детектив, SATRip]

Ответить на тему
 
Автор Сообщение

user ®

Стаж: 7 лет 7 месяцев

Сообщений: 20008

Пост Пост: #1 от 23-Фев-2014 13:30

[Цитировать]

Осенний детектив
Жанр: Триллер, детектив
Год выпуска: 2002
Продолжительность: 1:22:34
Режиссёр: Иван Павлов
В ролях: Александр Лыков, Георгий Мартиросян, Алеся Лесникова, Евгений Леонтьев, Ольга Гудович, Александр Вергунов, Олег Гарбуз, Андрей Перепечко, Владимир Мищанчук, Анжелика Метте
Описание: Приехав на выходные со своей любовницей отдохнуть, Артем не только теряет девушку, которую убивают в первую же ночь, но и сам становится участником запутанных, странных игр маньяка, уничтожающего счастливых любовников одних, за другими.
Сэмпл: http://multi-up.com/953517
Качество видео: SATRip
Формат видео: AVI
Видео: XviD MPEG-4 , 704x416 (1.69:1) , 25 fps , 2223 kbps avg
Аудио: AC3 , 48 kHz , 160.00 kbps avg , 2/0 (L,R) ch

MediaInfo

General
Complete name : C:\Осенний детектив 2002.avi
Format : AVI
Format/Info : Audio Video Interleave
File size : 1.38 GiB
Duration : 1h 22mn
Overall bit rate : 2 393 Kbps
Writing library : VirtualDub build 35390/release
Video
ID : 0
Format : MPEG-4 Visual
Format settings, BVOP : No
Format settings, QPel : No
Format settings, GMC : No warppoints
Format settings, Matrix : Default (H.263)
Codec ID : XVID
Codec ID/Hint : XviD
Duration : 1h 22mn
Bit rate : 2 224 Kbps
Width : 704 pixels
Height : 416 pixels
Display aspect ratio : 1.692
Frame rate : 25.000 fps
Color space : YUV
Chroma subsampling : 4:2:0
Bit depth : 8 bits
Scan type : Progressive
Compression mode : Lossy
Bits/(Pixel*Frame) : 0.304
Stream size : 1.28 GiB (93%)
Audio
ID : 1
Format : AC-3
Format/Info : Audio Coding 3
Mode extension : CM (complete main)
Format settings, Endianness : Big
Codec ID : 2000
Duration : 1h 22mn
Bit rate mode : Constant
Bit rate : 160 Kbps
Channel(s) : 2 channels
Channel positions : Front: L R
Sampling rate : 48.0 KHz
Bit depth : 16 bits
Compression mode : Lossy
Stream size : 94.5 MiB (7%)
Alignment : Split accross interleaves
Interleave, duration : 40 ms (1.00 video frame)
Interleave, preload duration : 512 ms

Скриншот c названием фильма

Скриншоты

Скачать

Скачать торрент!

Как скачивать? · Что такое торрент? · Рейтинг и ограничения

Сайт не распространяет и не хранит электронные версии произведений, а лишь предоставляет доступ к создаваемому пользователями каталогу ссылок на торрент-файлы, которые содержат только списки хеш-сумм

[Профиль] [ЛС]
Показать сообщения:    
Ответить на тему

Текущее время: Сегодня 06:22

Часовой пояс: GMT + 4



Вы не можете начинать темы
Вы не можете отвечать на сообщения
Вы не можете редактировать свои сообщения
Вы не можете удалять свои сообщения
Вы не можете голосовать в опросах
Вы не можете прикреплять файлы к сообщениям
Вы не можете скачивать файлы