Наш американский Боря (Борис Бушмелёв) [1992, комедия, DVB]

Ответить на тему
 
Автор Сообщение

user ®

Стаж: 7 лет 7 месяцев

Сообщений: 20008

Пост Пост: #1 от 23-Фев-2014 10:20

[Цитировать]

Наш американский Боря
Жанр: комедия
Год выпуска: 1992
Продолжительность: 01:23:13
Режиссёр: Борис Бушмелёв
В ролях: Сергей Маковецкий, Валентина Талызина, Татьяна Васильева, Инна Ульянова, Мария Виноградова, Вера Ивлева, Ваня Арсеньев, Миша Арсеньев, Марина Игнатова, Татьяна Лаврентьева, Михаил Кокшенов, Виктор Филиппов, Семен Заков, Владимир Епископосян, Людмила Баранова, Зинаида Воркуль, Сергей Клановский, Виктор Колпаков (II), Анна Левченко, Виталий Бордачев, Анатолий Чуб
Описание: На родину приезжает новоиспеченный американец Боря. Его тетя мечтает видеть племянника счастливым и хочет женить его на хорошей русской девушке. От претендентов нет отбоя, приходится Боре маскироваться и прятаться от настойчивых барышень...
Доп. информация: Запись потока *.ts со спутника EUTELSAT, ремукс в *.mpg программой VideoReDo.
Качество видео: DVB
Формат видео: MPEG-PS
Видео: MPEG Video, 720(768)x576 (4:3), 25,000 кадров/сек, 4 724 Кбит/сек
Аудио: MPEG Audio, 48,0 КГц, 192 Кбит/сек, 2 канала

MediaInfo

Complete name : D:\MPG\Наш американский Боря (Ностальгия).mpg
Format : MPEG-PS
File size : 2.92 GiB
Duration : 1h 23mn
Overall bit rate mode : Variable
Overall bit rate : 5 016 Kbps
Video
ID : 224 (0xE0)
Format : MPEG Video
Format version : Version 2
Format profile : Main@Main
Format settings, BVOP : Yes
Format settings, Matrix : Custom
Format settings, GOP : Variable
Duration : 1h 23mn
Bit rate mode : Variable
Bit rate : 4 724 Kbps
Maximum bit rate : 15.0 Mbps
Width : 720 pixels
Height : 576 pixels
Display aspect ratio : 4:3
Frame rate : 25.000 fps
Standard : PAL
Color space : YUV
Chroma subsampling : 4:2:0
Bit depth : 8 bits
Scan type : Interlaced
Scan order : Top Field First
Compression mode : Lossy
Bits/(Pixel*Frame) : 0.456
Time code of first frame : 00:00:00:00
Time code source : Group of pictures header
Stream size : 2.75 GiB (94%)
Audio
ID : 192 (0xC0)
Format : MPEG Audio
Format version : Version 1
Format profile : Layer 2
Duration : 1h 23mn
Bit rate mode : Constant
Bit rate : 192 Kbps
Channel count : 2 channels
Sampling rate : 48.0 KHz
Compression mode : Lossy
Delay relative to video : 13ms
Stream size : 114 MiB (4%)
Скачать

Скачать торрент!

Как скачивать? · Что такое торрент? · Рейтинг и ограничения

Сайт не распространяет и не хранит электронные версии произведений, а лишь предоставляет доступ к создаваемому пользователями каталогу ссылок на торрент-файлы, которые содержат только списки хеш-сумм

[Профиль] [ЛС]
Показать сообщения:    
Ответить на тему

Текущее время: Сегодня 20:33

Часовой пояс: GMT + 4



Вы не можете начинать темы
Вы не можете отвечать на сообщения
Вы не можете редактировать свои сообщения
Вы не можете удалять свои сообщения
Вы не можете голосовать в опросах
Вы не можете прикреплять файлы к сообщениям
Вы не можете скачивать файлы