Ведьма войны / War Witch / Rebelle (Ким Нгуйен / Kim Nguyen) [2012, Канада, драма, WEB-DL 720p] MVO + Original (Fre) + Sub (eng)

Ответить на тему
 
Автор Сообщение

user ®

Стаж: 7 лет 7 месяцев

Сообщений: 20008

Пост Пост: #1 от 22-Фев-2014 22:30

[Цитировать]

Ведьма войны
Rebelle
Страна: Канада
Год выпуска: 2012
Жанр: драма
Продолжительность: 01:30:08
Перевод: Профессиональный (многоголосый закадровый)
русские субтитры: нет-Режиссёр: Ким Нгуйен : Kim Nguyen
В главных ролях: Рашель Мванза, Ален Лино Мик Эли Бастьен, Серж Каньинда, Мизинга Мвинга, Ральф Проспер, Жан Кабуйя, Дайан Увамахоро, Жупитер Боконжи, Старлет Матата, Алекс Херабо...-Описание: Действие происходит в одной из африканских стран. 12-летняя девочка Комона в числе прочих детей была захвачена в родной деревне повстанцами Большого Тигра, воюющими против правительственных войск. После непродолжительного обучения она начинает участвовать в боевых действиях и вскоре прославляется своей способностью чувствовать близость врага. Сам Большой Тигр объявляет её своей «придворной» ведьмой. После одного из сражений парень, которого все зовут «колдуном», убеждает Комону оставить отряд и вернуться к мирной жизни. Однако эта передышка оказалась недолгой…-
Фильм основан на реальных событиях!-Качество: WEB-DL 720p
Формат: MKV
Видео кодек: AVC
Аудио кодек: АС3
Видео: 1280x692, 23.976 fps, ~3 910 kbps avg, 0.184 bit/pixel
Аудио #1: [RUS] 48 kHz, AC3 Dolby Digital, 3/2 (L,C,R,l,r) + LFE ch, ~448 kbps
Аудио #2: [FRE] 48 kHz, AC3 Dolby Digital, 3/2 (L,C,R,l,r) + LFE ch, ~348 kbps
субтитры: английские
навигация по главам: 16 глав (именные)

скриншоты


MediaInfo

Общее
Уникальный идентификатор : 175716619840857560604996202630800847270 (0x8431CA3CA3FC0DA49AD6DA63A421B1A6)
Полное имя : D:\Фильмы\Ведьма войны\Rebelle.2012.WEB-DL 720p.mkv
Формат : Matroska
Версия формата : Version 4 / Version 2
Размер файла : 3,05 Гбайт
Продолжительность : 1 ч. 30 м.
Общий поток : 4838 Кбит/сек
Дата кодирования : UTC 2014-02-21 17:14:06
Программа кодирования : mkvmerge v6.7.0 ('Back to the Ground') 32bit built on Jan 8 2014 15:03:17
Библиотека кодирования : libebml v1.3.0 + libmatroska v1.4.1
Видео
Идентификатор : 1
Формат : AVC
Формат/Информация : Advanced Video Codec
Профиль формата : High@L3.1
Параметр CABAC формата : Нет
Параметр ReFrames формата : 2 кадра
Идентификатор кодека : V_MPEG4/ISO/AVC
Продолжительность : 1 ч. 30 м.
Битрейт : 3910 Кбит/сек
Ширина : 1280 пикселей
Высота : 692 пикселя
Соотношение сторон : 1,85:1
Режим частоты кадров : Постоянный
Частота кадров : 23,976 кадра/сек
Цветовое пространство : YUV
Субдискретизация насыщенности : 4:2:0
Битовая глубина : 8 бит
Тип развёртки : Прогрессивная
Бит/(Пиксели*Кадры) : 0.184
Размер потока : 2,46 Гбайт (81%)
Язык : English
Default : Да
Forced : Нет
Основные цвета : BT.709
Характеристики трансфера : BT.709
Коэффициенты матрицы : BT.709
Аудио #1
Идентификатор : 2
Формат : AC-3
Формат/Информация : Audio Coding 3
Расширение режима : CM (complete main)
Параметр Endianness формата : Big
Идентификатор кодека : A_AC3
Продолжительность : 1 ч. 30 м.
Вид битрейта : Постоянный
Битрейт : 448 Кбит/сек
Каналы : 6 каналов
Расположение каналов : Front: L C R, Side: L R, LFE
Частота : 48,0 КГц
Битовая глубина : 16 бит
Метод сжатия : С потерями
Размер потока : 289 Мбайт (9%)
Заголовок : MVO
Язык : Russian
Default : Да
Forced : Нет
Аудио #2
Идентификатор : 3
Формат : AC-3
Формат/Информация : Audio Coding 3
Расширение режима : CM (complete main)
Параметр Endianness формата : Big
Идентификатор кодека : A_AC3
Продолжительность : 1 ч. 30 м.
Вид битрейта : Постоянный
Битрейт : 384 Кбит/сек
Каналы : 6 каналов
Расположение каналов : Front: L C R, Side: L R, LFE
Частота : 48,0 КГц
Битовая глубина : 16 бит
Метод сжатия : С потерями
Размер потока : 248 Мбайт (8%)
Заголовок : FRE
Язык : French
Default : Нет
Forced : Нет
Текст
Идентификатор : 4
Формат : UTF-8
Идентификатор кодека : S_TEXT/UTF8
Идентификатор кодека/Информация : UTF-8 Plain Text
Заголовок : Eng Sub
Язык : English
Default : Нет
Forced : Нет
Меню
00:00:00.000 : en:Opening Credits
00:05:50.000 : en:Working For The Rebels
00:10:56.000 : en:Training
00:16:09.000 : en:Ghosts
00:22:04.000 : en:War
00:28:10.000 : en:At Camp
00:36:46.000 : en:The Village
00:42:06.000 : en:A Trick
00:46:34.000 : en:The Chicken
00:55:45.000 : en:The Magician
01:02:29.000 : en:Protection
01:05:56.000 : en:In Pain
01:11:01.000 : en:At Night
01:15:17.000 : en:Her Baby
01:20:18.000 : en:A Proper Burial
01:25:08.000 : en:End Credits
Скачать

Скачать торрент!

Как скачивать? · Что такое торрент? · Рейтинг и ограничения

Сайт не распространяет и не хранит электронные версии произведений, а лишь предоставляет доступ к создаваемому пользователями каталогу ссылок на торрент-файлы, которые содержат только списки хеш-сумм

[Профиль] [ЛС]
Показать сообщения:    
Ответить на тему

Текущее время: Сегодня 12:35

Часовой пояс: GMT + 4



Вы не можете начинать темы
Вы не можете отвечать на сообщения
Вы не можете редактировать свои сообщения
Вы не можете удалять свои сообщения
Вы не можете голосовать в опросах
Вы не можете прикреплять файлы к сообщениям
Вы не можете скачивать файлы