Одиноким предоставляется общежитие (Самсон Самсонов) [1983, мелодрама, комедия, HDTVRip-AVC]

Ответить на тему
 
Автор Сообщение

user ®

Стаж: 7 лет 7 месяцев

Сообщений: 20008

Пост Пост: #1 от 22-Фев-2014 22:30

[Цитировать]

Одиноким предоставляется общежитие
Жанр: мелодрама, комедия
Год выпуска: 1983
Продолжительность: 01:23:45
Режиссёр: Самсон Самсонов
В ролях: Наталья Гундарева, Александр Михайлов, Елена Антонова, Елена Драпеко, Татьяна Божок, Фрунзик Мкртчян, Виктор Павлов, Людмила Шевель, Тамара Семина, Елена Майорова, Мария Скворцова, Татьяна Агафонова
Описание: Не секрет, что для работниц ткацких фабрик устроить личную жизнь - дело совсем не простое. В общежитие ткачих комендантом направляется бывший моряк (Михайлов). Он сразу же узнает, что душой вверенного ему коллектива является Вера Голубева (Гундарева), занимающаяся устройством личной жизни своих подруг. "Сваха" по призванию, она организовала нечто вроде бесплатного брачного агентства, собирая данные о потенциальных женихах со всей страны...
Доп. информация: Исходник HDTV (1080i)
Качество видео: HDTVRip-AVC
Формат видео: MKV
Видео: 1070x448, (2,40:1), 25.000 fps, AVC, ~3560 Kbps
Аудио: МР2, 2 ch, 192 Кбит/с

MediaInfo

raw [info]: 1070x448p 1:1 @ 25/1 fps (cfr)
x264 [info]: using SAR=1/1
x264 [info]: using cpu capabilities: MMX2 SSE2Fast SSSE3 SSE4.2 AVX
x264 [info]: profile High, level 4.1
x264 [info]: frame I:681 Avg QP:17.80 size: 67420
x264 [info]: frame P:33329 Avg QP:20.11 size: 32518
x264 [info]: frame B:90620 Avg QP:22.45 size: 12021-Общее
Уникальный идентификатор : 199798734755882365489255670261937161344 (0x964FD62C2F42ACE7A682E59D38894480)
Полное имя : D:\Одиноким предоставляется общежитие_1983-HDTVRip-AVC.mkv
Формат : Matroska
Версия формата : Version 2
Размер файла : 2,18 Гбайт
Продолжительность : 1 ч. 23 м.
Общий поток : 3755 Кбит/сек
Дата кодирования : UTC 2014-02-22 14:46:07
Программа кодирования : mkvmerge v5.1.0 ('And so it goes') built on Nov 28 2011 23:58:28
Библиотека кодирования : libebml v1.2.3 + libmatroska v1.3.0
Видео
Идентификатор : 1
Формат : AVC
Формат/Информация : Advanced Video Codec
Профиль формата : High@L4.1
Параметр CABAC формата : Да
Параметр ReFrames формата : 15 кадров
Идентификатор кодека : V_MPEG4/ISO/AVC
Продолжительность : 1 ч. 23 м.
Битрейт : 3561 Кбит/сек
Ширина : 1070 пикселей
Высота : 448 пикселей
Соотношение сторон : 2,40:1
Режим частоты кадров : Постоянный
Частота кадров : 25,000 кадров/сек
Цветовое пространство : YUV
Субдискретизация насыщенности : 4:2:0
Битовая глубина : 8 бит
Тип развёртки : Прогрессивная
Бит/(Пиксели*Кадры) : 0.297
Размер потока : 2,02 Гбайт (93%)
Библиотека кодирования : x264 core 142 r2389 956c8d8
Настройки программы : cabac=1 / ref=15 / deblock=1:-3:-2 / analyse=0x3:0x113 / me=umh / subme=11 / psy=1 / psy_rd=1.05:0.15 / mixed_ref=1 / me_range=24 / chroma_me=1 / trellis=2 / 8x8dct=1 / cqm=0 / deadzone=21,11 / fast_pskip=0 / chroma_qp_offset=-3 / threads=12 / lookahead_threads=2 / sliced_threads=0 / nr=0 / decimate=0 / interlaced=0 / bluray_compat=0 / constrained_intra=0 / bframes=7 / b_pyramid=2 / b_adapt=2 / b_bias=0 / direct=3 / weightb=1 / open_gop=0 / weightp=2 / keyint=250 / keyint_min=25 / scenecut=40 / intra_refresh=0 / rc_lookahead=60 / rc=2pass / mbtree=1 / bitrate=3561 / ratetol=1.0 / qcomp=0.65 / qpmin=0 / qpmax=39 / qpstep=4 / cplxblur=20.0 / qblur=0.5 / ip_ratio=1.30 / aq=1:1.00
Язык : English
Default : Да
Forced : Нет
Основные цвета : BT.709
Характеристики трансфера : BT.709
Коэффициенты матрицы : BT.709
Аудио
Идентификатор : 2
Формат : MPEG Audio
Версия формата : Version 1
Профиль формата : Layer 2
Идентификатор кодека : A_MPEG/L2
Идентификатор кодека/Подсказка : MP2
Продолжительность : 1 ч. 23 м.
Вид битрейта : Постоянный
Битрейт : 192 Кбит/сек
Каналы : 2 канала
Частота : 48,0 КГц
Метод сжатия : С потерями
Задержка видео : 19 мс.
Размер потока : 114 Мбайт (5%)
Язык : Russian
Default : Да
Forced : Нет
Скачать

Скачать торрент!

Как скачивать? · Что такое торрент? · Рейтинг и ограничения

Сайт не распространяет и не хранит электронные версии произведений, а лишь предоставляет доступ к создаваемому пользователями каталогу ссылок на торрент-файлы, которые содержат только списки хеш-сумм

[Профиль] [ЛС]
Показать сообщения:    
Ответить на тему

Текущее время: Сегодня 06:28

Часовой пояс: GMT + 4



Вы не можете начинать темы
Вы не можете отвечать на сообщения
Вы не можете редактировать свои сообщения
Вы не можете удалять свои сообщения
Вы не можете голосовать в опросах
Вы не можете прикреплять файлы к сообщениям
Вы не можете скачивать файлы