Родня (Никита Михалков) [1981, Трагикомедия, DVDRip-AVC]

Ответить на тему
 
Автор Сообщение

user ®

Стаж: 7 лет 11 месяцев

Сообщений: 20008

Пост Пост: #1 от 22-Фев-2014 04:10

[Цитировать]

Родня
Жанр: трагикомедия
Год выпуска: 1981
Продолжительность: 01:32:27
Режиссёр: Никита Михалков
В ролях: Нонна Мордюкова, Светлана Крючкова, Андрей Петров, Иван Бортник, Юрий Богатырев, Федя Стуков, Всеволод Ларионов, Никита Михалков, Александр Адабашьян, Павел Лебешев, Лариса Кузнецова, Олег Меньшиков, Сергей Газаров, Владимир Хотиненко, Руслан Ахметов, Юрий Бабинцев, Валентина Березуцкая, Виктор Бутурлин, Эрика Джимпел, Анна Гуляренко, Юрий Гусев, Геннадий Иванов, Светлана Коновалова, Римма Маркова, Валерий Никитин, Ирина Петрова, Евгений Цымбал, Инна Выходцева, Алексей Якубов, Александр Захаркин
Описание: Маруся Коновалова - простая, грубоватая, но очень душевная деревенская женщина - едет к дочери и внучке в областной центр, в поезде знакомится с главным инженером рыбзавода - немолодым, очень добрым и милым человеком. Может быть, у них и могло бы что-то сложиться, но... Добрая и простодушная Маруся никак не предполагала, в каком мире живут её самые дорогие и, пожалуй, единственно близкие ей люди. Она узнаёт, что дочь не любит мужа, не живет с ним, хотя и не развелась, не любит свою работу и специальность, которой выучилась, лишь бы только уехать из села, да и жизнь свою, похоже, не очень любит. Всё это отрицательно сказывается на внучке...
Качество видео: DVDRip-AVC
Формат видео: MKV
Видео: 720x556@768x556, 25.000 fps, AVC, ~2018 Kbps
Аудио: Russian (Dolby AC3, 1 ch) 224 Kbps

MediaInfo

raw [info]: 720x556p 16:15 @ 25/1 fps (cfr)
x264 [info]: using SAR=16/15
x264 [info]: using cpu capabilities: MMX2 SSE2Fast SSSE3 SSE4.2 AVX
x264 [info]: profile High, level 4.1
x264 [info]: frame I:682 Avg QP:16.65 size: 49972
x264 [info]: frame P:28572 Avg QP:19.23 size: 22136
x264 [info]: frame B:109433 Avg QP:21.36 size: 6697-Общее
Уникальный идентификатор : 188625779592033361646337564281360526986 (0x8DE800F3CAB68AEFAC5B5CC13E52AE8A)
Полное имя : D:\Родня_1981-DVDRip-AVC.mkv
Формат : Matroska
Версия формата : Version 2
Размер файла : 1,45 Гбайт
Продолжительность : 1 ч. 32 м.
Общий поток : 2244 Кбит/сек
Дата кодирования : UTC 2014-02-21 20:54:27
Программа кодирования : mkvmerge v5.1.0 ('And so it goes') built on Nov 28 2011 23:58:28
Библиотека кодирования : libebml v1.2.3 + libmatroska v1.3.0
Видео
Идентификатор : 1
Формат : AVC
Формат/Информация : Advanced Video Codec
Профиль формата : High@L4.1
Параметр CABAC формата : Да
Параметр ReFrames формата : 15 кадров
Идентификатор кодека : V_MPEG4/ISO/AVC
Продолжительность : 1 ч. 32 м.
Битрейт : 2018 Кбит/сек
Ширина : 720 пикселей
Высота : 556 пикселей
Соотношение сторон : 1,381
Режим частоты кадров : Постоянный
Частота кадров : 25,000 кадров/сек
Цветовое пространство : YUV
Субдискретизация насыщенности : 4:2:0
Битовая глубина : 8 бит
Тип развёртки : Прогрессивная
Бит/(Пиксели*Кадры) : 0.202
Размер потока : 1,28 Гбайт (88%)
Библиотека кодирования : x264 core 142 r2389 956c8d8
Настройки программы : cabac=1 / ref=15 / deblock=1:-2:-2 / analyse=0x3:0x133 / me=umh / subme=11 / psy=1 / psy_rd=0.90:0.06 / mixed_ref=1 / me_range=24 / chroma_me=1 / trellis=2 / 8x8dct=1 / cqm=0 / deadzone=21,11 / fast_pskip=0 / chroma_qp_offset=-3 / threads=12 / lookahead_threads=2 / sliced_threads=0 / nr=0 / decimate=0 / interlaced=0 / bluray_compat=0 / constrained_intra=0 / bframes=7 / b_pyramid=2 / b_adapt=2 / b_bias=0 / direct=3 / weightb=1 / open_gop=0 / weightp=2 / keyint=250 / keyint_min=25 / scenecut=40 / intra_refresh=0 / rc_lookahead=60 / rc=2pass / mbtree=1 / bitrate=2018 / ratetol=1.0 / qcomp=0.70 / qpmin=0 / qpmax=39 / qpstep=4 / cplxblur=20.0 / qblur=0.5 / ip_ratio=1.30 / aq=1:0.90
Default : Да
Forced : Нет
Основные цвета : BT.601 PAL
Характеристики трансфера : BT.470 System B, BT.470 System G
Коэффициенты матрицы : BT.601
Аудио
Идентификатор : 2
Формат : AC-3
Формат/Информация : Audio Coding 3
Расширение режима : CM (complete main)
Параметр Endianness формата : Big
Идентификатор кодека : A_AC3
Продолжительность : 1 ч. 32 м.
Вид битрейта : Постоянный
Битрейт : 224 Кбит/сек
Каналы : 1 канал
Расположение каналов : Front: C
Частота : 48,0 КГц
Битовая глубина : 16 бит
Метод сжатия : С потерями
Задержка видео : 498 мс.
Размер потока : 148 Мбайт (10%)
Язык : Russian
Default : Да
Forced : Нет
Скачать

Скачать торрент!

Как скачивать? · Что такое торрент? · Рейтинг и ограничения

Сайт не распространяет и не хранит электронные версии произведений, а лишь предоставляет доступ к создаваемому пользователями каталогу ссылок на торрент-файлы, которые содержат только списки хеш-сумм

[Профиль] [ЛС]
Показать сообщения:    
Ответить на тему

Текущее время: Сегодня 10:19

Часовой пояс: GMT + 4



Вы не можете начинать темы
Вы не можете отвечать на сообщения
Вы не можете редактировать свои сообщения
Вы не можете удалять свои сообщения
Вы не можете голосовать в опросах
Вы не можете прикреплять файлы к сообщениям
Вы не можете скачивать файлы