Легенда о лисе / Legend of the fox / Fei hu wai chuan (Чан Чэ / Chang Cheh) [1980, Гонконг, боевые искусства, DVDRip] VO

Ответить на тему
 
Автор Сообщение

user ®

Стаж: 11 лет

Сообщений: 15151

Пост Пост: #1 от 22-Фев-2014 01:00

[Цитировать]

Легенда о лисе / Legend of the fox
Страна: Гонконг
Жанр: боевые искусства
Год выпуска: 1980
Продолжительность: 02:02:39-Перевод: Одноголосый закадровый Валерий Феодосов
Cубтитры: нет
Оригинальная аудиодорожка: нет-Режиссер: Чан Чэ / Chang Cheh
В ролях: Чин Сиу Хо, Филип Квок, Лу Фэн, Чхо Сын Ван-Описание: Мастер меча Ху Идао (Лу Фенг) принимает вызов от непобедимого бойца Мяо Ренфенга (Филлип Квок) – бой должен быть не на жизнь, а на смерть. Соперники сражаются несколько дней, но ни один не может одержать верх, и тогда коварный помощник Ренфенга, Тьян Гуйнон (Чианг Шенг) тайно наносит на лезвия мечей яд, что кончается смертью Ху от малюсенькой царапины. Проходят годы, сын Идао, Ху Фей (Чин Сиу-Хо) вырастает в мастера, и главная цель в его жизни – отомстить за отца…- -Релиз группы
-Качество видео: DVDRip
Формат видео: AVI
Видео: XviD, 720x304 (2.37:1), 23.976 fps, 1506 kbps avg, 0.29 bit/pixel
Аудио: Русский MPEG layer 3, 192 kbps-

Доп. информация

Переводчик: Марина Торлин

MediaInfo

Format : AVI
Format/Info : Audio Video Interleave
File size : 1.46 GiB
Duration : 2h 2mn
Overall bit rate : 1 708 Kbps
Writing application : VirtualDubMod 1.5.10.2 (build 2540/release)
Writing library : VirtualDubMod build 2540/release
Video
ID : 0
Format : MPEG-4 Visual
Format profile : Advanced Simple@L5
Format settings, BVOP : 1
Format settings, QPel : No
Format settings, GMC : No warppoints
Format settings, Matrix : Custom
Codec ID : XVID
Codec ID/Hint : XviD
Duration : 2h 2mn
Bit rate : 1 507 Kbps
Width : 720 pixels
Height : 304 pixels
Display aspect ratio : 2.35:1
Frame rate : 23.976 fps
Color space : YUV
Chroma subsampling : 4:2:0
Bit depth : 8 bits
Scan type : Progressive
Compression mode : Lossy
Bits/(Pixel*Frame) : 0.287
Stream size : 1.29 GiB (88%)
Writing library : XviD 73
Audio
ID : 1
Format : MPEG Audio
Format version : Version 1
Format profile : Layer 3
Mode : Joint stereo
Codec ID : 55
Codec ID/Hint : MP3
Duration : 2h 2mn
Bit rate mode : Constant
Bit rate : 192 Kbps
Channel(s) : 2 channels
Sampling rate : 48.0 KHz
Compression mode : Lossy
Stream size : 168 MiB (11%)
Alignment : Split accross interleaves
Interleave, duration : 42 ms (1.00 video frame)
Interleave, preload duration : 500 ms

Скриншот с названием

Скриншоты

Скачать

Скачать торрент! Легенда о лисе / Legend of the fox / Fei hu wai chuan (Чан Чэ / Chang Cheh) [1980, Гонконг, боевые искусства, DVDRip] VO

Как скачивать? · Что такое торрент? · Рейтинг и ограничения

Сайт не распространяет и не хранит электронные версии произведений, а лишь предоставляет доступ к создаваемому пользователями каталогу ссылок на торрент-файлы, которые содержат только списки хеш-сумм

[Профиль] [ЛС]
Показать сообщения:    
Ответить на тему

Текущее время: Сегодня 10:26

Часовой пояс: GMT + 4



Вы не можете начинать темы
Вы не можете отвечать на сообщения
Вы не можете редактировать свои сообщения
Вы не можете удалять свои сообщения
Вы не можете голосовать в опросах
Вы не можете прикреплять файлы к сообщениям
Вы не можете скачивать файлы