Дама с попугаем (Андрей Праченко) [1988, Лирическая комедия, DVBRip-AVC]

Ответить на тему
 
Автор Сообщение

user ®

Стаж: 7 лет 7 месяцев

Сообщений: 20008

Пост Пост: #1 от 22-Фев-2014 01:00

[Цитировать]

Дама с попугаем
Жанр: Лирическая комедия
Год выпуска: 1988
Продолжительность: 01:34:02
Режиссёр: Андрей Праченко
В ролях: Алексей Жарков, Светлана Смирнова, Дмитрий Копп, Татьяна Дитковсцене, Станислав Садальский, Альберт Филозов, Александр Вокач, Богдан Бенюк
Описание: Механик Шереметьевского аэропорта Сергей ежегодно отправляется в отпуск на Черноморское побережье Кавказа. Там он превращается в настоящего покорителя женских сердец. Однажды он решается разыскать одну из своих курортных знакомых – молодую профессорскую жену Елену. Его помощниками оказываются попугай, без устали повторяющий адрес своей хозяйки, и ее сын - хулиган и двоечник... Но когда они, наконец, встречаются, то выясняется, что женщина так же одинока, как и он, а маска профессорской жены – лишь попытка скрыть свою беззащитность и неустроенность в жизни...
Качество видео: DVBRip-AVC
Формат видео: MKV
Видео: 708x570@756x570, 25.000 fps, AVC, ~2214 Kbps
Аудио: MPEG Audio 48000Hz stereo 192kbps

MediaInfo

raw [info]: 708x570p 1:1 @ 25/1 fps (cfr)
x264 [info]: using SAR=1/1
x264 [info]: using cpu capabilities: MMX2 SSE2Fast SSSE3 SSE4.2 AVX
x264 [info]: profile Main, level 4.1
x264 [info]: frame I:812 Avg QP:20.48 size: 46891
x264 [info]: frame P:35823 Avg QP:22.35 size: 22663
x264 [info]: frame B:104431 Avg QP:23.90 size: 5533-Общее
Уникальный идентификатор : 216875457712095287619553395116682628312 (0xA328B19E41793ADCBC317095C979CCD8)
Полное имя : D:\Дама с попугаем_1988-DVBRip-AVC.mkv
Формат : Matroska
Версия формата : Version 2
Размер файла : 1,46 Гбайт
Продолжительность : 1 ч. 34 м.
Общий поток : 2220 Кбит/сек
Дата кодирования : UTC 2014-02-21 16:34:29
Программа кодирования : mkvmerge v5.1.0 ('And so it goes') built on Nov 28 2011 23:58:28
Библиотека кодирования : libebml v1.2.3 + libmatroska v1.3.0
Видео
Идентификатор : 1
Формат : AVC
Формат/Информация : Advanced Video Codec
Профиль формата : High@L4.1
Параметр CABAC формата : Да
Параметр ReFrames формата : 14 кадров
Идентификатор кодека : V_MPEG4/ISO/AVC
Продолжительность : 1 ч. 34 м.
Битрейт : 2026 Кбит/сек
Ширина : 708 пикселей
Высота : 570 пикселей
Соотношение сторон : 4:3
Соотношение сторон в оригинале : 5:4
Режим частоты кадров : Постоянный
Частота кадров : 25,000 кадров/сек
Цветовое пространство : YUV
Субдискретизация насыщенности : 4:2:0
Битовая глубина : 8 бит
Тип развёртки : Прогрессивная
Бит/(Пиксели*Кадры) : 0.201
Размер потока : 1,30 Гбайт (89%)
Библиотека кодирования : x264 core 142 r2389 956c8d8
Настройки программы : cabac=1 / ref=14 / deblock=1:-2:-2 / analyse=0x3:0x133 / me=umh / subme=11 / psy=1 / psy_rd=1.00:0.10 / mixed_ref=1 / me_range=24 / chroma_me=1 / trellis=2 / 8x8dct=1 / cqm=0 / deadzone=21,11 / fast_pskip=0 / chroma_qp_offset=-3 / threads=12 / lookahead_threads=1 / sliced_threads=0 / nr=0 / decimate=0 / interlaced=0 / bluray_compat=0 / constrained_intra=0 / bframes=5 / b_pyramid=2 / b_adapt=2 / b_bias=0 / direct=3 / weightb=1 / open_gop=0 / weightp=2 / keyint=250 / keyint_min=25 / scenecut=40 / intra_refresh=0 / rc=2pass / mbtree=0 / bitrate=2026 / ratetol=1.0 / qcomp=0.65 / qpmin=0 / qpmax=39 / qpstep=4 / cplxblur=20.0 / qblur=0.5 / ip_ratio=1.40 / pb_ratio=1.30 / aq=1:1.00
Язык : English
Default : Да
Forced : Нет
Основные цвета : BT.601 PAL
Характеристики трансфера : BT.470 System B, BT.470 System G
Коэффициенты матрицы : BT.601
Аудио
Идентификатор : 2
Формат : MPEG Audio
Версия формата : Version 1
Профиль формата : Layer 2
Идентификатор кодека : A_MPEG/L2
Идентификатор кодека/Подсказка : MP2
Продолжительность : 1 ч. 34 м.
Вид битрейта : Постоянный
Битрейт : 192 Кбит/сек
Каналы : 2 канала
Частота : 48,0 КГц
Метод сжатия : С потерями
Размер потока : 129 Мбайт (9%)
Язык : Russian
Default : Да
Forced : Нет
Скачать

Скачать торрент!

Как скачивать? · Что такое торрент? · Рейтинг и ограничения

Сайт не распространяет и не хранит электронные версии произведений, а лишь предоставляет доступ к создаваемому пользователями каталогу ссылок на торрент-файлы, которые содержат только списки хеш-сумм

[Профиль] [ЛС]
Показать сообщения:    
Ответить на тему

Текущее время: Сегодня 17:45

Часовой пояс: GMT + 4



Вы не можете начинать темы
Вы не можете отвечать на сообщения
Вы не можете редактировать свои сообщения
Вы не можете удалять свои сообщения
Вы не можете голосовать в опросах
Вы не можете прикреплять файлы к сообщениям
Вы не можете скачивать файлы