Мальчикам это нравится / The House Bunny (Фред Вульф / Fred Wolf) [2008, США, мелодрама, комедия, HDTV 1080i] MVO (1 канал)

Ответить на тему
 
Автор Сообщение

user ®

Стаж: 7 лет 7 месяцев

Сообщений: 20008

Пост Пост: #1 от 21-Фев-2014 19:00

[Цитировать]

Мальчикам это нравится / The House Bunny
Страна: США
Жанр: мелодрама, комедия
Год выпуска: 2008
Продолжительность: 01:29:46
Перевод: Профессиональный (многоголосый закадровый)
Cубтитры: нет
Оригинальная аудиодорожка: нет
Режиссер: Фред Вульф / Fred Wolf
В ролях: Анна Фэрис, Колин Хэнкс, Эмма Стоун, Кэт Деннингс, Хью М. Хефнер, Кристофер МакДональд, Беверли Д’Анджело, Кэтрин МакФи, Румер Уиллис, Кили Уильямс
Описание: Беззаботная и красочная «ванильно-карамельная» жизнь соблазнительной девушки-модели в особняке «Плейбой» в один миг превращается в проживание в собственном полуразвалившемся автомобиле. Неожиданно звездной девушке, привыкшей относиться к себе как к очаровательному розовому зайчику — символу мужских соблазнов — выпадает уникальный шанс: вновь обрести жилье и стать предводительницей клана «серых мышек». Девушки из студенческого общежития Альфа Зета Альфа находятся в плачевном состоянии. Странноватые, чудаковатые, неприглядные — индивидуалистки, которые твердо убеждены, что выделяться надо умом, а не внешностью. Но это убеждение может стоить им жилья. Так как общежитие может существовать лишь за счет пополнения новыми членами. На фоне их привлекательного и яркого соперника — общежития Фи Йота Мю — у девушек нет ни малейших шансов. У них не было бы шансов, не появись у них Шелли — эксперт по популярности у парней и секретам женской привлекательности!
Сэмпл: http://multi-up.com/952937
Тип релиза: HDTV 1080i
Контейнер: TS
Видео: AVC, 1920x1080 (16/9), 25.000 fps, 11.0 Mbps (0.212 bit/pixel)
Аудио: MP2, 48.0 KHz, 2 ch, 192 Kbps, CBR (Russian)

MI

Общее
Идентификатор : 3 (0x3)
Полное имя : K:\МОИ РАЗДАЧИ\Мальчикам это нравится.TS
Формат : MPEG-TS
Размер файла : 7,53 Гбайт
Продолжительность : 1 ч. 29 м.
Режим общего битрейта : Переменный
Общий поток : 12,0 Мбит/сек
Видео
Идентификатор : 2141 (0x85D)
Идентификатор меню : 21004 (0x520C)
Формат : AVC
Формат/Информация : Advanced Video Codec
Профиль формата : Main@L4.0
Параметр CABAC формата : Да
Параметр ReFrames формата : 3 кадра
Идентификатор кодека : 27
Продолжительность : 1 ч. 29 м.
Битрейт : 11,2 Мбит/сек
Ширина : 1920 пикселей
Высота : 1080 пикселей
Соотношение сторон : 16:9
Частота кадров : 25,000 кадров/сек
Стандарт вещания : Component
Цветовое пространство : YUV
Субдискретизация насыщенности : 4:2:0
Битовая глубина : 8 бит
Тип развёртки : Чересстрочная
Порядок развёртки : Верхнее поле первое
Бит/(Пиксели*Кадры) : 0.216
Размер потока : 7,03 Гбайт (93%)
Основные цвета : BT.709
Характеристики трансфера : BT.709
Коэффициенты матрицы : BT.709
Аудио
Идентификатор : 2142 (0x85E)
Идентификатор меню : 21004 (0x520C)
Формат : MPEG Audio
Версия формата : Version 1
Профиль формата : Layer 2
Идентификатор кодека : 4
Продолжительность : 1 ч. 29 м.
Вид битрейта : Постоянный
Битрейт : 192 Кбит/сек
Каналы : 2 канала
Частота : 48,0 КГц
Метод сжатия : С потерями
Задержка видео : -9 мс.
Размер потока : 123 Мбайт (2%)
Язык : Russian

Скриншоты


Скачать

Скачать торрент!

Как скачивать? · Что такое торрент? · Рейтинг и ограничения

Сайт не распространяет и не хранит электронные версии произведений, а лишь предоставляет доступ к создаваемому пользователями каталогу ссылок на торрент-файлы, которые содержат только списки хеш-сумм

[Профиль] [ЛС]
Показать сообщения:    
Ответить на тему

Текущее время: Сегодня 00:18

Часовой пояс: GMT + 4



Вы не можете начинать темы
Вы не можете отвечать на сообщения
Вы не можете редактировать свои сообщения
Вы не можете удалять свои сообщения
Вы не можете голосовать в опросах
Вы не можете прикреплять файлы к сообщениям
Вы не можете скачивать файлы