Бабуся (Лидия Боброва) [2003, Россия, Франция, драма, DVDRip-AVC]

Ответить на тему
 
Автор Сообщение

user ®

Стаж: 7 лет 7 месяцев

Сообщений: 20008

Пост Пост: #1 от 21-Фев-2014 19:00

[Цитировать]

Бабуся«Мы разучились нищим подавать…»- Страна: Россия, Франция
Жанр: драма
Год выпуска: 2003
Продолжительность: 01:35:06-Перевод: Не требуется
Cубтитры: Отсутствуют-Режиссер: Лидия Боброва
В ролях: Нина Шубина, Ольга Онищенко, Анна Овсянникова, Владимир Кулаков, Сергей Ануфриев, Юрий Овсянко, Валентина Черкозьянова, Мария Лобачёва, Сергей Гамов, Тамара Цыганова, Поля Тильге, Сергей Кабановский, Павел Деревянко, Галина Бокашевская-Описание: Бабуся — так ласково звали ее внуки, для которых она была главным человеком на свете. Прошли годы. Внуки выросли, обзавелись своими семьями. Бабушка продала свой дом и вырученные деньги отдала внукам на обзаведение, а сама осталась жить с дочерью и зятем в полученной ими городской квартире. Но тут случилась беда…
- -Качество видео: DVDRip-AVC
Формат видео: MKV
Автор рипа: dOrOgOi | -Видео: 720 x 458 (1.677:1) @ 768 x 458, 25.000 fps, AVC, ~1 814 kbps avg, 0.220 bit/pixel
Аудио: AC3, 48.0 KHz, 6 channels (Front: L C R, Side: L R, LFE), 384.00 kbps avg |

MediaInfo & x264 log

x264 log

raw [info]: 720x458p 16:15 @ 25/1 fps (cfr)
x264 [info]: using SAR=16/15
x264 [info]: using cpu capabilities: MMX2 SSE2Fast SSSE3 SSE4.2 AVX
x264 [info]: profile High, level 4.1
x264 [info]: frame I:637   Avg QP:18.91  size: 55889
x264 [info]: frame P:26445 Avg QP:21.32  size: 21129
x264 [info]: frame B:115570 Avg QP:23.73  size:  6054
x264 [info]: consecutive B-frames:  0.7%  0.9%  5.0%  6.8%  9.5% 69.2%  5.6%  0.8%  1.1%  0.4%
x264 [info]: mb I  I16..4:  2.8% 80.3% 16.9%
x264 [info]: mb P  I16..4:  0.2%  9.7%  0.8%  P16..4: 33.1% 36.9% 15.6%  2.0%  0.2%    skip: 1.5%
x264 [info]: mb B  I16..4:  0.0%  1.3%  0.1%  B16..8: 34.3% 18.6%  2.9%  direct: 6.7%  skip:36.1%  L0:33.3% L1:39.0% BI:27.7%
x264 [info]: 8x8 transform intra:90.6% inter:54.2%
x264 [info]: direct mvs  spatial:98.9% temporal:1.1%
x264 [info]: coded y,uvDC,uvAC intra: 97.8% 84.5% 54.3% inter: 26.6% 17.3% 2.4%
x264 [info]: i16 v,h,dc,p: 53% 10%  6% 31%
x264 [info]: i8 v,h,dc,ddl,ddr,vr,hd,vl,hu:  8%  9% 16%  9% 12% 10% 12% 10% 13%
x264 [info]: i4 v,h,dc,ddl,ddr,vr,hd,vl,hu: 14%  9%  4%  8% 14% 13% 14% 11% 13%
x264 [info]: i8c dc,h,v,p: 32% 29% 23% 17%
x264 [info]: Weighted P-Frames: Y:2.0% UV:0.5%
x264 [info]: ref P L0: 38.7% 12.6% 20.7%  5.6%  6.4%  3.9%  4.7%  2.2%  2.7%  2.2%  0.3%  0.0%
x264 [info]: ref B L0: 79.8% 10.7%  3.3%  1.9%  1.3%  1.2%  1.0%  0.5%  0.2%
x264 [info]: ref B L1: 95.1%  4.9%
x264 [info]: kb/s:1814.15
General
Unique ID                                : 251690827636666230581224956244676334319 (0xBD59E3E2012C145697589CEA21A452EF)
Complete name                            : D:\Babusya.2003.DVDRip-AVC.AC3.by dOrOgOi.mkv
Format                                   : Matroska
Format version                           : Version 2
File size                                : 1.46 GiB
Duration                                 : 1h 35mn
Overall bit rate                         : 2 200 Kbps
Encoded date                             : UTC 2014-02-20 22:55:50
Writing application                      : mkvmerge v5.0.1 ('Es ist Sommer') built on Nov  6 2011 16:23:40
Writing library                          : libebml v1.2.2 + libmatroska v1.3.0
Video
ID                                       : 1
Format                                   : AVC
Format/Info                              : Advanced Video Codec
Format profile                           : High@L4.1
Format settings, CABAC                   : Yes
Format settings, ReFrames                : 10 frames
Codec ID                                 : V_MPEG4/ISO/AVC
Duration                                 : 1h 35mn
Bit rate                                 : 1 814 Kbps
Width                                    : 720 pixels
Height                                   : 458 pixels
Display aspect ratio                     : 1.677
Frame rate mode                          : Constant
Frame rate                               : 25.000 fps
Color space                              : YUV
Chroma subsampling                       : 4:2:0
Bit depth                                : 8 bits
Scan type                                : Progressive
Bits/(Pixel*Frame)                       : 0.220
Stream size                              : 1.18 GiB (81%)
Writing library                          : x264 core 142 r2389 956c8d8
Encoding settings                        : cabac=1 / ref=10 / deblock=1:0:0 / analyse=0x3:0x133 / me=umh / subme=11 / psy=1 / psy_rd=0.95:0.05 / mixed_ref=1 / me_range=48 / chroma_me=1 / trellis=2 / 8x8dct=1 / cqm=0 / deadzone=21,11 / fast_pskip=0 / chroma_qp_offset=-3 / threads=12 / lookahead_threads=2 / sliced_threads=0 / nr=0 / decimate=1 / interlaced=0 / bluray_compat=0 / constrained_intra=0 / bframes=9 / b_pyramid=2 / b_adapt=2 / b_bias=0 / direct=3 / weightb=1 / open_gop=0 / weightp=2 / keyint=250 / keyint_min=25 / scenecut=40 / intra_refresh=0 / rc_lookahead=60 / rc=2pass / mbtree=0 / bitrate=1814 / ratetol=1.0 / qcomp=0.60 / qpmin=0 / qpmax=69 / qpstep=4 / cplxblur=20.0 / qblur=0.5 / vbv_maxrate=50000 / vbv_bufsize=62500 / nal_hrd=none / filler=0 / ip_ratio=1.40 / pb_ratio=1.30 / aq=2:1.00
Default                                  : Yes
Forced                                   : No
Audio
ID                                       : 2
Format                                   : AC-3
Format/Info                              : Audio Coding 3
Mode extension                           : CM (complete main)
Format settings, Endianness              : Big
Codec ID                                 : A_AC3
Duration                                 : 1h 35mn
Bit rate mode                            : Constant
Bit rate                                 : 384 Kbps
Channel count                            : 6 channels
Channel positions                        : Front: L C R, Side: L R, LFE
Sampling rate                            : 48.0 KHz
Bit depth                                : 16 bits
Compression mode                         : Lossy
Stream size                              : 261 MiB (17%)
Default                                  : Yes
Forced                                   : No
Скачать

Скачать торрент!

Как скачивать? · Что такое торрент? · Рейтинг и ограничения

Сайт не распространяет и не хранит электронные версии произведений, а лишь предоставляет доступ к создаваемому пользователями каталогу ссылок на торрент-файлы, которые содержат только списки хеш-сумм

[Профиль] [ЛС]
Показать сообщения:    
Ответить на тему

Текущее время: Сегодня 04:29

Часовой пояс: GMT + 4



Вы не можете начинать темы
Вы не можете отвечать на сообщения
Вы не можете редактировать свои сообщения
Вы не можете удалять свои сообщения
Вы не можете голосовать в опросах
Вы не можете прикреплять файлы к сообщениям
Вы не можете скачивать файлы