"Шлагбаум" (Дмитрий Туприн) [2013, драма, криминал, WEB-DL, AVC]

Ответить на тему
 
Автор Сообщение

user ®

Стаж: 7 лет 7 месяцев

Сообщений: 20008

Пост Пост: #1 от 21-Фев-2014 09:30

[Цитировать]

"Шлагбаум" / Режиссерская версия
Жанр: драма, криминал
Год выпуска: 2013
Продолжительность: 1:16:45
Режиссёр: Дмитрий Туприн
В ролях: Сергей Биликтуев, Баир Костров, Алдар Дугарон, Санаа Самбын и тд
Описание: Тимур со своими друзьями ввязывается в криминальную авантюру на Байкале, но все заканчивается не так, как они ожидали. После этого лета их жизнь никогда не будет прежней.
Качество видео: WEB-DL
Формат видео: MP4
Видео:
Format : AVC
Format/Info : Advanced Video Codec
Format profile : High@L3.1
Format settings, CABAC : Yes
Format settings, ReFrames : 1 frame
Format settings, GOP : M=1, N=60
Codec ID : avc1
Codec ID/Info : Advanced Video Coding
Duration : 1h 16mn
Bit rate : 1 617 Kbps
Maximum bit rate : 8 426 Kbps
Width : 1 280 pixels
Height : 720 pixels
Display aspect ratio : 16:9
Frame rate mode : Constant
Frame rate : 25.000 fps
Color space : YUV
Chroma subsampling : 4:2:0
Bit depth : 8 bits
Scan type : Progressive
Bits/(Pixel*Frame) : 0.070
Stream size : 888 MiB (89%)
Tagged date : UTC 2014-02-16 17:44:00
Аудио:
ormat : AAC
Format/Info : Advanced Audio Codec
Format profile : LC
Codec ID : 40
Duration : 1h 16mn
Bit rate mode : Variable
Bit rate : 192 Kbps
Maximum bit rate : 202 Kbps
Channel count : 2 channels
Channel positions : Front: L R
Sampling rate : 44.1 KHz
Compression mode : Lossy
Stream size : 105 MiB (11%)
Title : IsoMedia File Produced by Google, 5-11-2011
Encoded date : UTC 2014-02-16 17:40:58
Tagged date : UTC 2014-02-16 17:44:00

MediaInfo

Format : MPEG-4
Format profile : Base Media / Version 2
Codec ID : mp42
File size : 994 MiB
Duration : 1h 16mn
Overall bit rate mode : Variable
Overall bit rate : 1 811 Kbps
Encoded date : UTC 2014-02-16 17:34:32
Tagged date : UTC 2014-02-16 17:34:32
gsst : 0
gstd : 4604980

Скриншоты



Скачать

Скачать торрент!

Как скачивать? · Что такое торрент? · Рейтинг и ограничения

Сайт не распространяет и не хранит электронные версии произведений, а лишь предоставляет доступ к создаваемому пользователями каталогу ссылок на торрент-файлы, которые содержат только списки хеш-сумм

[Профиль] [ЛС]
Показать сообщения:    
Ответить на тему

Текущее время: Сегодня 16:44

Часовой пояс: GMT + 4



Вы не можете начинать темы
Вы не можете отвечать на сообщения
Вы не можете редактировать свои сообщения
Вы не можете удалять свои сообщения
Вы не можете голосовать в опросах
Вы не можете прикреплять файлы к сообщениям
Вы не можете скачивать файлы