Водитель для Веры (Павел Чухрай) [2004, Детектив, Мелодрама, DVDRip-AVC]

Ответить на тему
 
Автор Сообщение

user ®

Стаж: 7 лет 7 месяцев

Сообщений: 20008

Пост Пост: #1 от 21-Фев-2014 04:15

[Цитировать]

Водитель для Веры
Жанр: Детектив, Мелодрама
Год выпуска: 2004
Продолжительность: 01:50:41
Режиссёр: Павел Чухрай
В ролях: Игорь Петренко, Алена Бабенко, Богдан Ступка, Андрей Панин, Екатерина Юдина, Марина Голуб
Описание: На даче генерала в Крыму появляется новый водитель. Виктору суждено перевернуть судьбы всех обитателей большого дома. Горничная Лида откровенно добивается его. Дочь генерала Вера надменна с водителем, и вскоре – безоглядно влюбляется в него. Генеральский адъютант плетет интриги, вовлекая новичка. Но любовь Веры и Виктора, его блестящая карьера, жизни многих людей - все становится разменной монетой в чьей-то большой игре. И когда придет час расплаты, готовы ли будут герои бороться за свою любовь? Смогут ли они наперекор всему сохранить свою честь незапятнанной?
Качество видео: DVDRip-AVC
Формат видео: MKV
Видео: 678x572@964x572, 25.000 fps, AVC, ~2500 Kbps
Аудио: 48 kHz, AC3 Dolby Digital, 2/0 (L,R) ch, ~192.00 kbps avg

MediaInfo

raw [info]: 678x572p 64:45 @ 25/1 fps (cfr)
x264 [info]: using SAR=64/45
x264 [info]: using cpu capabilities: MMX2 SSE2Fast SSSE3 SSE4.2 AVX
x264 [info]: profile High, level 4.1
x264 [info]: frame I:1219 Avg QP:19.14 size: 60111
x264 [info]: frame P:37310 Avg QP:21.90 size: 23729
x264 [info]: frame B:127516 Avg QP:22.83 size: 8791-Общее
Уникальный идентификатор : 190336499373953437967445747937783187349 (0x8F3179F31571C5FB88BE64BAB5CA0795)
Полное имя : D:\Водитель для Веры_2004-DVDRip-AVC.mkv
Формат : Matroska
Версия формата : Version 4 / Version 2
Размер файла : 2,09 Гбайт
Продолжительность : 1 ч. 50 м.
Общий поток : 2699 Кбит/сек
Дата кодирования : UTC 2014-02-20 21:55:34
Программа кодирования : mkvmerge v6.1.0 ('Old Devil') built on Mar 4 2013 09:10:42
Библиотека кодирования : libebml v1.3.0 + libmatroska v1.4.0
Видео
Идентификатор : 1
Формат : AVC
Формат/Информация : Advanced Video Codec
Профиль формата : High@L4.1
Параметр CABAC формата : Да
Параметр ReFrames формата : 13 кадров
Идентификатор кодека : V_MPEG4/ISO/AVC
Продолжительность : 1 ч. 50 м.
Битрейт : 2505 Кбит/сек
Ширина : 678 пикселей
Высота : 572 пикселя
Соотношение сторон : 1,685
Соотношение сторон в оригинале : 1,686
Режим частоты кадров : Постоянный
Частота кадров : 25,000 кадров/сек
Цветовое пространство : YUV
Субдискретизация насыщенности : 4:2:0
Битовая глубина : 8 бит
Тип развёртки : Прогрессивная
Бит/(Пиксели*Кадры) : 0.258
Размер потока : 1,90 Гбайт (91%)
Библиотека кодирования : x264 core 142 r2389 956c8d8
Настройки программы : cabac=1 / ref=13 / deblock=1:-2:-2 / analyse=0x3:0x133 / me=umh / subme=11 / psy=1 / psy_rd=1.10:0.20 / mixed_ref=1 / me_range=24 / chroma_me=1 / trellis=2 / 8x8dct=1 / cqm=0 / deadzone=21,11 / fast_pskip=0 / chroma_qp_offset=-3 / threads=12 / lookahead_threads=2 / sliced_threads=0 / nr=0 / decimate=0 / interlaced=0 / bluray_compat=0 / constrained_intra=0 / bframes=8 / b_pyramid=2 / b_adapt=2 / b_bias=0 / direct=3 / weightb=1 / open_gop=0 / weightp=2 / keyint=250 / keyint_min=25 / scenecut=40 / intra_refresh=0 / rc=2pass / mbtree=0 / bitrate=2505 / ratetol=1.0 / qcomp=0.70 / qpmin=0 / qpmax=39 / qpstep=4 / cplxblur=20.0 / qblur=0.5 / ip_ratio=1.30 / pb_ratio=1.20 / aq=1:1.00
Default : Да
Forced : Нет
Основные цвета : BT.601 PAL
Характеристики трансфера : BT.470 System B, BT.470 System G
Коэффициенты матрицы : BT.601
Аудио
Идентификатор : 2
Формат : AC-3
Формат/Информация : Audio Coding 3
Расширение режима : CM (complete main)
Параметр Endianness формата : Big
Идентификатор кодека : A_AC3
Продолжительность : 1 ч. 50 м.
Вид битрейта : Постоянный
Битрейт : 192 Кбит/сек
Каналы : 2 канала
Расположение каналов : Front: L R
Частота : 48,0 КГц
Битовая глубина : 16 бит
Метод сжатия : С потерями
Размер потока : 152 Мбайт (7%)
Default : Да
Forced : Нет
Скачать

Скачать торрент!

Как скачивать? · Что такое торрент? · Рейтинг и ограничения

Сайт не распространяет и не хранит электронные версии произведений, а лишь предоставляет доступ к создаваемому пользователями каталогу ссылок на торрент-файлы, которые содержат только списки хеш-сумм

[Профиль] [ЛС]
Показать сообщения:    
Ответить на тему

Текущее время: Сегодня 19:57

Часовой пояс: GMT + 4



Вы не можете начинать темы
Вы не можете отвечать на сообщения
Вы не можете редактировать свои сообщения
Вы не можете удалять свои сообщения
Вы не можете голосовать в опросах
Вы не можете прикреплять файлы к сообщениям
Вы не можете скачивать файлы