Северо-запад / Nordvest / Nordwest (Михаэль Ноер / Michael Noer) [2013, Дания, боевик, драма, криминал, BDRip 720p] AVO (Антон Алексеев) + Original (Dan) + Sub (Eng)

Ответить на тему
 
Автор Сообщение

user ®

Стаж: 7 лет 7 месяцев

Сообщений: 20008

Пост Пост: #1 от 20-Фев-2014 21:55

[Цитировать]

Северо-запад / Nordvest / Nordwest- Страна: Дания
Жанр: боевик, драма, криминал
Год выпуска: 2013
Продолжительность: 01:30:25-Перевод: Авторский (одноголосый закадровый) - Антон Алексеев
Оригинальная аудиодорожка: Danish
Cубтитры: English
Навигация по главам: Присутствует-Режиссер: Михаэль Ноер / Michael Noer
В ролях: Густав Дюэкьер Гис, Оскар Дюэкьер Гис, Лене Мария Кристенсен, , Николас Вествуд Кидд, Роланд Мюллер, Дульфи Аль-Джабури, Клемент Блэк Петерсен-Описание: Северо-запад Копенгагена является одним из самых бедных и многонациональных районов города. 18-летний Каспер живет здесь со своей матерью, младшим братом и маленькой сестрой. Чтобы свести концы с концами, он вместе со своим другом Робином совершает мелкие кражи из домов, сбывая краденое местному главарю Джамалу, контролирующему небольшую банду в этом районе. Но амбициозный Каспер не хочет, рискуя собой, зависеть от него, рыская ночью по домам за те небольшие наличные, которые он платит взамен. После встречи с Бьорном, одним из лидеров организованной преступной группировки, он соглашается работать на него, понимая, что это поможет подняться ему на совершенно иной, новый уровень в уголовной иерархии криминального мира. Поначалу все идет гладко…-imdb.com: 7.00 (1531)
kinopoisk.ru: 6.668 (420)
Download sample-Качество видео: BDRip 720p
Формат видео: MKV-Видео: 1280 x 692 at 24.000 fps (True24p), x264@L4.1, 2pass, ~8 500 kbps avg
Аудио №1: 48 kHz, AC3, 3/2 (L,C,R,l,r) + LFE ch, ~640.00 kbps avg | Авторский (одноголосый закадровый) - Антон Алексеев
Аудио №2: 48 kHz, AC3, 3/2 (L,C,R,l,r) + LFE ch, ~640.00 kbps avg | Danish-

Дополнительно

Сохранены оригинальные чаптеры как на Blu-ray.
Дорожка №1 получена наложением чистого голоса на центр декодированного DTS-HD MA.
Перевод А. Алексеева осуществлен в рамках сервиса "Озвучивание". Спонсоры: Skoped, zeleniy, Kator, tambov68, dinocrisis
Рип от EbP

MediaInfo

General
Unique ID : 202104034202991362737125515013095374978 (0x980BD235EC4C73A7A8AC33FCCDAB4082)
Complete name : D:\Фильмы\Nordvest.2013.720p.BluRay.Rus.Dut.HDCLUB.mkv
Format : Matroska
Format version : Version 4 / Version 2
File size : 6.18 GiB
Duration : 1h 30mn
Overall bit rate : 9 780 Kbps
Encoded date : UTC 2013-11-21 10:27:16
Writing application : mkvmerge v6.3.0 ('You can't stop me!') built on Jun 28 2013 20:09:41
Writing library : libebml v1.3.0 + libmatroska v1.4.0
Video
ID : 2
Format : AVC
Format/Info : Advanced Video Codec
Format profile : High@L4.1
Format settings, CABAC : Yes
Format settings, ReFrames : 9 frames
Codec ID : V_MPEG4/ISO/AVC
Duration : 1h 30mn
Bit rate : 8 306 Kbps
Width : 1 280 pixels
Height : 692 pixels
Display aspect ratio : 1.85:1
Frame rate mode : Constant
Frame rate : 24.000 fps
Color space : YUV
Chroma subsampling : 4:2:0
Bit depth : 8 bits
Scan type : Progressive
Bits/(Pixel*Frame) : 0.391
Stream size : 5.25 GiB (85%)
Title : Nordvest 2013
Language : Danish
Default : Yes
Forced : No
Audio #1
ID : 3
Format : AC-3
Format/Info : Audio Coding 3
Mode extension : CM (complete main)
Format settings, Endianness : Big
Codec ID : A_AC3
Duration : 1h 30mn
Bit rate mode : Constant
Bit rate : 640 Kbps
Channel count : 6 channels
Channel positions : Front: L C R, Side: L R, LFE
Sampling rate : 48.0 KHz
Bit depth : 16 bits
Compression mode : Lossy
Stream size : 414 MiB (7%)
Title : A. Alekseev
Language : Russian
Default : Yes
Forced : Yes
Audio #2
ID : 4
Format : AC-3
Format/Info : Audio Coding 3
Mode extension : CM (complete main)
Format settings, Endianness : Big
Codec ID : A_AC3
Duration : 1h 30mn
Bit rate mode : Constant
Bit rate : 640 Kbps
Channel count : 6 channels
Channel positions : Front: L C R, Side: L R, LFE
Sampling rate : 48.0 KHz
Bit depth : 16 bits
Compression mode : Lossy
Stream size : 414 MiB (7%)
Language : Danish
Default : No
Forced : No
Text
ID : 1
Format : UTF-8
Codec ID : S_TEXT/UTF8
Codec ID/Info : UTF-8 Plain Text
Language : English
Default : Yes
Forced : No
Menu
00:00:00.000 : en:00:00:00.000
00:09:59.542 : en:00:09:59.542
00:19:59.875 : en:00:19:59.875
00:29:59.667 : en:00:29:59.667
00:39:59.833 : en:00:39:59.833
00:49:59.583 : en:00:49:59.583
00:59:59.750 : en:00:59:59.750
01:09:59.792 : en:01:09:59.792
01:19:59.875 : en:01:19:59.875

Скриншоты

Скачать

Скачать торрент!

Как скачивать? · Что такое торрент? · Рейтинг и ограничения

Сайт не распространяет и не хранит электронные версии произведений, а лишь предоставляет доступ к создаваемому пользователями каталогу ссылок на торрент-файлы, которые содержат только списки хеш-сумм

[Профиль] [ЛС]
Показать сообщения:    
Ответить на тему

Текущее время: Сегодня 00:12

Часовой пояс: GMT + 4



Вы не можете начинать темы
Вы не можете отвечать на сообщения
Вы не можете редактировать свои сообщения
Вы не можете удалять свои сообщения
Вы не можете голосовать в опросах
Вы не можете прикреплять файлы к сообщениям
Вы не можете скачивать файлы