Руки потрошителя / Hands of the Ripper (Питер Сасди / Peter Sasdy) [1971, Великобритания, ужасы, триллер, BDRip 720p] AVO (Горчаков) + Original (Eng) + Sub (Eng)

Ответить на тему
 
Автор Сообщение

user ®

Стаж: 7 лет 7 месяцев

Сообщений: 20008

Пост Пост: #1 от 20-Фев-2014 21:55

[Цитировать]

Руки потрошителя / Hands of the Ripper«The Hands of Jack the Ripper Live Again...As His Fiendish Daughter Kills Again...And Again...And Again...»- Страна: Великобритания
Жанр: ужасы, триллер
Год выпуска: 1971
Продолжительность: 01:25:14-Перевод: Авторский (одноголосый закадровый) - Горчаков Василий
Оригинальная аудиодорожка №1: English
Оригинальная аудиодорожка №2: English - Isolated Music & Effects Audio Track
Cубтитры: English
Навигация по главам: Присутствует (подписанная)-Режиссер: Питер Сасди / Peter Sasdy
В ролях: Эрик Портер, Джэйн Мэрроу, Дерек Годфри, Ангхарад Рис, Марджори Роудс, Кит Белл, Маргарет Роулингс, Линда Барон,Марджи Лоуренс, Норман Бёрд, Элизабет МакЛеннан, А.Дж. Браун, Бэрри Лоу, Дора Брайан-Описание: Лондон. Викторианская эпоха. Маленькая дочь Джека-потрошителя Анна становится свидетельницей убийства своей матери обезумевшим отцом. Пятнадцать лет спустя ею овладевает порочный дух ее отца. Она продолжает кровавую одиссею своего безумного папаши. Симпатичный психиатр, доктор Притчард, убежденный поклонник теории Зигмунда Фрейда, пытается помочь Анне. Он начинает заниматься с ней и пытается убедить, что она в состоянии излечиться от своей пагубной привычки…-imdb.com: 6.30 (973)
kinopoisk.ru: 5.722 (33)
Download sample-Качество видео: BDRip 720p | исх. Hands of the Ripper 1971 1080p Blu-ray AVC DTS-HD MA 2.0 (thx Shadowman)
Формат видео: MKV-Видео: AVC, 1194x720 (1.658), 23.976 fps, 9 735 Kbps (0.472 bit/pixel)
Аудио №1: 48 kHz, AC3, 2/0 (L,R) ch, ~192.00 kbps avg | Авторский (одноголосый закадровый) - Горчаков Василий
Аудио №2: 48 kHz/24-bit, DTS, 2/0 (L,R) ch, ~1509.00 kbps avg | English
Аудио №3: 48 kHz/24-bit, DTS, 2/0 (L,R) ch, ~1509.00 kbps avg | English - Isolated Music & Effects Audio Track-

Дополнительно

Сохранены оригинальные чаптеры как на Blu-ray.
За ремукс спасибо Diablo
Рип от CtrlHD

MediaInfo

General
Unique ID : 201898472219184755361906380897730173844 (0x97E43B38EBC9AFCDB87A21F69E4C1B94)
Complete name : D:\Фильмы\Hands.of.the.Ripper.1971.720p.BluRay.Rus.2xEng.HDCLUB.mkv
Format : Matroska
Format version : Version 2
File size : 7.88 GiB
Duration : 1h 25mn
Overall bit rate : 13.2 Mbps
Movie name : Hands of the Ripper (1971) - Release for HDCLUB
Encoded date : UTC 2013-11-09 10:43:30
Writing application : mkvmerge v5.7.0 ('The Whirlwind') built on Jul 8 2012 20:08:51
Writing library : libebml v1.2.3 + libmatroska v1.3.0
Video
ID : 1
Format : AVC
Format/Info : Advanced Video Codec
Format profile : High@L4.1
Format settings, CABAC : Yes
Format settings, ReFrames : 9 frames
Codec ID : V_MPEG4/ISO/AVC
Duration : 1h 25mn
Bit rate : 9 737 Kbps
Width : 1 194 pixels
Height : 720 pixels
Display aspect ratio : 1.658
Frame rate mode : Constant
Frame rate : 23.976 fps
Color space : YUV
Chroma subsampling : 4:2:0
Bit depth : 8 bits
Scan type : Progressive
Bits/(Pixel*Frame) : 0.472
Stream size : 5.81 GiB (74%)
Writing library : x264 core 133 r2334kMod a3ac64b
Encoding settings : cabac=1 / ref=9 / deblock=1:-3:-3 / analyse=0x3:0x113 / me=tesa / subme=10 / psy=1 / fade_compensate=0.00 / psy_rd=1.15:0.00 / mixed_ref=1 / me_range=16 / chroma_me=1 / trellis=2 / 8x8dct=1 / cqm=0 / deadzone=21,11 / fast_pskip=0 / chroma_qp_offset=-2 / threads=18 / lookahead_threads=4 / sliced_threads=0 / nr=0 / decimate=0 / interlaced=0 / bluray_compat=0 / constrained_intra=0 / bframes=16 / b_pyramid=2 / b_adapt=2 / b_bias=0 / direct=3 / weightb=1 / open_gop=0 / weightp=2 / keyint=250 / keyint_min=23 / scenecut=40 / intra_refresh=0 / rc=crf / mbtree=0 / crf=18.5000 / qcomp=0.70 / qpmin=0 / qpmax=69 / qpstep=4 / ip_ratio=1.20 / pb_ratio=1.10 / aq=1:0.50
Language : English
Default : Yes
Forced : No
Audio #1
ID : 2
Format : AC-3
Format/Info : Audio Coding 3
Mode extension : CM (complete main)
Format settings, Endianness : Big
Codec ID : A_AC3
Duration : 1h 25mn
Bit rate mode : Constant
Bit rate : 192 Kbps
Channel count : 2 channels
Channel positions : Front: L R
Sampling rate : 48.0 KHz
Bit depth : 16 bits
Compression mode : Lossy
Stream size : 117 MiB (1%)
Title : |Одноголосый закадровый, В. Горчаков|
Language : Russian
Default : Yes
Forced : No
Audio #2
ID : 3
Format : DTS
Format/Info : Digital Theater Systems
Mode : 16
Format settings, Endianness : Big
Codec ID : A_DTS
Duration : 1h 25mn
Bit rate mode : Constant
Bit rate : 1 509 Kbps
Channel count : 2 channels
Channel positions : Front: L R
Sampling rate : 48.0 KHz
Bit depth : 24 bits
Compression mode : Lossy
Stream size : 922 MiB (11%)
Language : English
Default : No
Forced : No
Audio #3
ID : 4
Format : DTS
Format/Info : Digital Theater Systems
Mode : 16
Format settings, Endianness : Big
Codec ID : A_DTS
Duration : 1h 25mn
Bit rate mode : Constant
Bit rate : 1 509 Kbps
Channel count : 2 channels
Channel positions : Front: L R
Sampling rate : 48.0 KHz
Bit depth : 24 bits
Compression mode : Lossy
Stream size : 922 MiB (11%)
Title : |Isolated Music & Effects Audio Track|
Language : English
Default : No
Forced : No
Text
ID : 5
Format : UTF-8
Codec ID : S_TEXT/UTF8
Codec ID/Info : UTF-8 Plain Text
Language : English
Default : No
Forced : No
Menu #1
00:00:00.000 : en:1. Jack
00:06:54.414 : en:2. A Trifle Touched
00:14:36.250 : en:3. Questions
00:20:00.282 : en:4. Arrangements
00:28:15.193 : en:5. A Misunderstanding
00:35:17.198 : en:6. Late for the Party
00:41:45.128 : en:7. It's Alright
00:48:22.149 : en:8. Going on a Voyage
00:57:39.748 : en:9. Wedding
01:01:09.291 : en:10. No Crystal Ball
01:06:35.575 : en:11. Open Your Eyes
01:16:20.326 : en:12. Whispering Gallery
Menu #2
00:00:00.054 : en:00:00:00.054

Скриншоты

Скачать

Скачать торрент!

Как скачивать? · Что такое торрент? · Рейтинг и ограничения

Сайт не распространяет и не хранит электронные версии произведений, а лишь предоставляет доступ к создаваемому пользователями каталогу ссылок на торрент-файлы, которые содержат только списки хеш-сумм

[Профиль] [ЛС]
Показать сообщения:    
Ответить на тему

Текущее время: Сегодня 00:06

Часовой пояс: GMT + 4



Вы не можете начинать темы
Вы не можете отвечать на сообщения
Вы не можете редактировать свои сообщения
Вы не можете удалять свои сообщения
Вы не можете голосовать в опросах
Вы не можете прикреплять файлы к сообщениям
Вы не можете скачивать файлы