Царь горы / King of the Hill (Стивен Содерберг / Steven Soderbergh) [1993, США, драма, BDRemux 1080p] [Criterion Collection] DVO + Sub Eng + Original Eng

Ответить на тему
 
Автор Сообщение

user ®

Стаж: 7 лет 7 месяцев

Сообщений: 20008

Пост Пост: #1 от 20-Фев-2014 21:55

[Цитировать]

Царь горы / King of the Hill
Страна: США
Жанр: драма
Год выпуска: 1993
Продолжительность: 01:43:23
Перевод: Профессиональный (двухголосый закадровый)
Cубтитры: английские
Оригинальная аудиодорожка: английский-Режиссер: Стивен Содерберг / Steven Soderbergh
В ролях: Джесси Брэдфорд, Йерун Краббе, Лиза Айкхорн, Карен Аллен, Сполдинг Грэй, Элизабет МакГоверн, Камерон Бойд, Эдриен Броуди, Джо Крест, Кристин Гриффит, Кэтрин Хейгл, Джон Дарбин (I), Джесс Зайглер, Римак Рамсей, Джозеф Патрик Мойнихэн, Мак Такано, Крэйг Хоуксли, Гарри Говерник, Рон Йеркса, Эмбер Бенсон
Описание: Драма о юном парне по имени Аарон, который в разгар Великой депрессии оказывается без родных - брата отправляют к дяде, мать оказывается в клинике, а отец вынужден уехать на поиски клиентов (единственная работа, которую он может найти, - путешествующий коммивояжер). Аарон остается один в квартире доходного дома и просто пытается выжить, надеясь на лучшее.
IMDb || КиноПоиск-Тип релиза: BDRemux 1080p [King of the Hill 1993 1080p Blu-ray AVC DTS-HD MA 5.1-LAZERS]
Контейнер: MKV
Видео: MPEG-4 AVC Video, 1920x1080 at 23.976 fps, 26957 kbps
Аудио#1: Russian: 48 kHz, AC3, 2.0 ch, 192 kbps |Двухголосый закадровый|
Аудио#2: English: 48 kHz, DTS-HD MA, 5.1 ch, 3459 kbps (DTS Core: 5.1 / 48 kHz / 1509 kbps / 24-bit)
Формат субтитров: softsub (SRT)
Сэмпл

MediaInfo

General
Unique ID : 226453464965179234685065648827141180829 (0xAA5D59D5CE4C8D1D96EF5DFB2D7FCD9D)
Complete name : King Of The Hill.1993.CC.BDRemux. rutracker.mkv
Format : Matroska
Format version : Version 2
File size : 21.4 GiB
Duration : 1h 43mn
Overall bit rate mode : Variable
Overall bit rate : 29.7 Mbps
Movie name : Release for RuTracker
Encoded date : UTC 2014-02-20 17:58:11
Writing application : mkvmerge v5.0.1 ('Es ist Sommer') built on Nov 6 2011 16:23:40
Writing library : libebml v1.2.2 + libmatroska v1.3.0
Video
ID : 1
Format : AVC
Format/Info : Advanced Video Codec
Format profile : High@L4.1
Format settings, CABAC : Yes
Format settings, ReFrames : 4 frames
Codec ID : V_MPEG4/ISO/AVC
Duration : 1h 43mn
Bit rate mode : Variable
Bit rate : 27.3 Mbps
Maximum bit rate : 37.0 Mbps
Width : 1 920 pixels
Height : 1 080 pixels
Display aspect ratio : 16:9
Frame rate : 23.976 fps
Color space : YUV
Chroma subsampling : 4:2:0
Bit depth : 8 bits
Scan type : Progressive
Bits/(Pixel*Frame) : 0.549
Stream size : 19.7 GiB (92%)
Title : King Of The Hill.1993.CC.BDRemux. rutracker
Language : English
Default : Yes
Forced : No
Audio #1
ID : 2
Format : AC-3
Format/Info : Audio Coding 3
Mode extension : CM (complete main)
Codec ID : A_AC3
Duration : 1h 43mn
Bit rate mode : Constant
Bit rate : 192 Kbps
Channel(s) : 2 channels
Channel positions : Front: L R
Sampling rate : 48.0 KHz
Bit depth : 16 bits
Compression mode : Lossy
Stream size : 142 MiB (1%)
Language : Russian
Default : Yes
Forced : No
Audio #2
ID : 3
Format : DTS
Format/Info : Digital Theater Systems
Format profile : MA / Core
Codec ID : A_DTS
Duration : 1h 43mn
Bit rate mode : Variable
Bit rate : 1 561 Kbps / 1 510 Kbps
Channel(s) : 6 channels
Channel positions : Front: L C R, Side: L R, LFE
Sampling rate : 48.0 KHz
Bit depth : 24 bits
Compression mode : Lossless / Lossy
Language : English
Default : No
Forced : No
Text
ID : 4
Format : UTF-8
Codec ID : S_TEXT/UTF8
Codec ID/Info : UTF-8 Plain Text
Language : English
Default : No
Forced : No
Menu
00:00:00.000 : en:Charles Lindbergh: American Hero
00:04:42.449 : en:Lessons For Sullivan
00:09:04.836 : en:Sacrifices
00:14:58.689 : en:"True Or False?"
00:16:26.569 : en:Marbles And Canaries
00:22:15.793 : en:Opportunities
00:26:35.594 : en:A Concerned Teacher
00:29:51.790 : en:Mom's Illness
00:33:41.061 : en:A Bad Day Of Caddying
00:35:49.939 : en:Ella
00:39:52.557 : en:Dinner With Dad
00:42:37.138 : en:First-Time Driver
00:46:54.687 : en:Dad's New Job
00:51:13.654 : en:Necessary Resourcefulness
00:56:06.947 : en:Graduation
01:04:50.637 : en:Billy's Party
01:09:28.539 : en:Eviction Notice
01:16:54.151 : en:Mr. Mungo
01:23:37.429 : en:Darkest Days
01:28:51.910 : en:Reunited
01:34:40.675 : en:Family

Скриншоты

Скачать

Скачать торрент!

Как скачивать? · Что такое торрент? · Рейтинг и ограничения

Сайт не распространяет и не хранит электронные версии произведений, а лишь предоставляет доступ к создаваемому пользователями каталогу ссылок на торрент-файлы, которые содержат только списки хеш-сумм

[Профиль] [ЛС]
Показать сообщения:    
Ответить на тему

Текущее время: Сегодня 23:47

Часовой пояс: GMT + 4



Вы не можете начинать темы
Вы не можете отвечать на сообщения
Вы не можете редактировать свои сообщения
Вы не можете удалять свои сообщения
Вы не можете голосовать в опросах
Вы не можете прикреплять файлы к сообщениям
Вы не можете скачивать файлы