По семейным обстоятельствам (Алексей Коренев) [1977, Лирическая комедия, DVDRip-AVC]

Ответить на тему
 
Автор Сообщение

user ®

Стаж: 7 лет 7 месяцев

Сообщений: 20008

Пост Пост: #1 от 20-Фев-2014 21:55

[Цитировать]

По семейным обстоятельствам
Жанр: Лирическая комедия
Год выпуска: 1977
Продолжительность: 02:08:52
Режиссёр: Алексей Коренев
В ролях: Галина Польских, Ролан Быков, Евгений Евстигнеев, Марина Дюжева, Евгений Стеблов, Анатолий Папанов, Евгения Ханаева, Бухути Закариадзе, Людмила Зайцева, Нина Дорошина, Юрий Кузьменков, Лев Дуров, Николай Парфенов, Владимир Басов
Описание: Режиссер поставил замечательную мелодраму с элементами комедии, рассказывающую о жизни, любви, семье, семейных проблемах, взаимоотношениях между родителями и детьми, тещами, свекровями. Галина Польских в роли привлекательной, молодой еще женщины, чья дочь вышла замуж за героя Стеблова. Дочь и ее муж еще так молоды, и она не может принять их легкого отношения к жизни, травит зятя, пока сама не становится невесткой, выйдя замуж за художника, которого сыграл Евгений Евстигнеев, скромного, тихого человека, живущего со своей очень требовательной мамой. Только тогда она резко меняется и дома, и на работе. Добрая, милая картина, горячо любимая нашим зрителем. Многие эпизоды - например, с логопедом Быковым, не произносящим половину букв, вошли в пословицы и дежурные шутки, благодаря прекрасным диалогам сценариста Валентина Азерникова.
Качество видео: DVDRip-AVC
Формат видео: MKV
Видео: 720x572@768x572, 25.000 fps, AVC, ~2214 Kbps
Аудио: Russian (Dolby AC3, 1 ch, 224 Kbps)

MediaInfo

raw [info]: 720x572p 16:15 @ 25/1 fps (cfr)
x264 [info]: using SAR=16/15
x264 [info]: using cpu capabilities: MMX2 SSE2Fast SSSE3 SSE4.2 AVX
x264 [info]: profile High, level 4.1
x264 [info]: frame I:899 Avg QP:20.37 size: 40838
x264 [info]: frame P:37226 Avg QP:22.83 size: 19232
x264 [info]: frame B:155180 Avg QP:23.79 size: 8940-Общее
Уникальный идентификатор : 202171479443036993576835340870592261027 (0x9818CF84886B2EC496FD114199A46BA3)
Полное имя : D:\По семейным обстоятельствам_1977-DVDRip-AVC.mkv
Формат : Matroska
Версия формата : Version 4 / Version 2
Размер файла : 2,20 Гбайт
Продолжительность : 2 ч. 8 м.
Общий поток : 2440 Кбит/сек
Дата кодирования : UTC 2014-02-20 16:06:04
Программа кодирования : mkvmerge v6.1.0 ('Old Devil') built on Mar 4 2013 09:10:42
Библиотека кодирования : libebml v1.3.0 + libmatroska v1.4.0
Видео
Идентификатор : 1
Формат : AVC
Формат/Информация : Advanced Video Codec
Профиль формата : High@L4.1
Параметр CABAC формата : Да
Параметр ReFrames формата : 15 кадров
Идентификатор кодека : V_MPEG4/ISO/AVC
Продолжительность : 2 ч. 8 м.
Битрейт : 2214 Кбит/сек
Ширина : 720 пикселей
Высота : 572 пикселя
Соотношение сторон : 4:3
Режим частоты кадров : Постоянный
Частота кадров : 25,000 кадров/сек
Цветовое пространство : YUV
Субдискретизация насыщенности : 4:2:0
Битовая глубина : 8 бит
Тип развёртки : Прогрессивная
Бит/(Пиксели*Кадры) : 0.215
Размер потока : 1,95 Гбайт (89%)
Библиотека кодирования : x264 core 142 r2389 956c8d8
Настройки программы : cabac=1 / ref=15 / deblock=1:-2:-2 / analyse=0x3:0x133 / me=umh / subme=11 / psy=1 / psy_rd=1.05:0.15 / mixed_ref=1 / me_range=24 / chroma_me=1 / trellis=2 / 8x8dct=1 / cqm=0 / deadzone=21,11 / fast_pskip=0 / chroma_qp_offset=-3 / threads=12 / lookahead_threads=3 / sliced_threads=0 / nr=0 / decimate=0 / interlaced=0 / bluray_compat=0 / constrained_intra=0 / bframes=10 / b_pyramid=2 / b_adapt=2 / b_bias=0 / direct=3 / weightb=1 / open_gop=0 / weightp=2 / keyint=250 / keyint_min=25 / scenecut=40 / intra_refresh=0 / rc=2pass / mbtree=0 / bitrate=2214 / ratetol=1.0 / qcomp=0.65 / qpmin=0 / qpmax=39 / qpstep=4 / cplxblur=20.0 / qblur=0.5 / ip_ratio=1.30 / pb_ratio=1.20 / aq=1:1.00
Default : Да
Forced : Нет
Основные цвета : BT.601 PAL
Характеристики трансфера : BT.470 System B, BT.470 System G
Коэффициенты матрицы : BT.601
Аудио
Идентификатор : 2
Формат : AC-3
Формат/Информация : Audio Coding 3
Расширение режима : CM (complete main)
Параметр Endianness формата : Big
Идентификатор кодека : A_AC3
Продолжительность : 2 ч. 8 м.
Вид битрейта : Постоянный
Битрейт : 224 Кбит/сек
Каналы : 1 канал
Расположение каналов : Front: C
Частота : 48,0 КГц
Битовая глубина : 16 бит
Метод сжатия : С потерями
Задержка видео : 380 мс.
Размер потока : 206 Мбайт (9%)
Default : Да
Forced : Нет
Скачать

Скачать торрент!

Как скачивать? · Что такое торрент? · Рейтинг и ограничения

Сайт не распространяет и не хранит электронные версии произведений, а лишь предоставляет доступ к создаваемому пользователями каталогу ссылок на торрент-файлы, которые содержат только списки хеш-сумм

[Профиль] [ЛС]
Показать сообщения:    
Ответить на тему

Текущее время: Сегодня 22:35

Часовой пояс: GMT + 4



Вы не можете начинать темы
Вы не можете отвечать на сообщения
Вы не можете редактировать свои сообщения
Вы не можете удалять свои сообщения
Вы не можете голосовать в опросах
Вы не можете прикреплять файлы к сообщениям
Вы не можете скачивать файлы