Белые росы (Игорь Добролюбов) [1983, комедия, DVDRip-AVC]

Ответить на тему
 
Автор Сообщение

user ®

Стаж: 7 лет 7 месяцев

Сообщений: 20008

Пост Пост: #1 от 20-Фев-2014 12:35

[Цитировать]

Белые росы
Жанр: комедия
Год выпуска: 1983
Продолжительность: 01:23:35
Режиссёр: Игорь Добролюбов
В ролях: Всеволод Санаев, Николай Караченцов, Михаил Кокшенов, Геннадий Гарбук, Борис Новиков, Галина Польских, Наталья Харахорина, Станислав Садальский, Стефания Станюта
Описание: В небольшой белорусской деревеньке Белые Росы живет заслуженный и уважаемый человек Федос Ходас. Он уже давно овдовел. Стали взрослыми и три его сына-погодка. И за каждого из них болит отцовское сердце, каждому старается помочь. Старший Андрей - человек основательный, но ему мешает его расчетливость. Балагур и весельчак Васька может потерять семью из-за бывшего возлюбленного его жены Маруси. Средний - Сашка - уехал на Курилы и уже 15 лет не был дома...
Качество видео: DVDRip-AVC
Формат видео: MKV
Видео: 694x572@740x572, 25.000 fps, AVC, ~2270 Kbps
Аудио: Russian (Dolby AC3, 2 ch, 224 kbps, 48 kHz)

MediaInfo

raw [info]: 694x572p 16:15 @ 25/1 fps (cfr)
x264 [info]: using SAR=16/15
x264 [info]: using cpu capabilities: MMX2 SSE2Fast SSSE3 SSE4.2 AVX
x264 [info]: profile High, level 4.1
x264 [info]: frame I:630 Avg QP:20.20 size: 55796
x264 [info]: frame P:29398 Avg QP:23.05 size: 22935
x264 [info]: frame B:95361 Avg QP:24.22 size: 7490-Общее
Уникальный идентификатор : 177079028970820961313176556107863429646 (0x85382E316EEB043EB2745DFC6004120E)
Полное имя : D:\Белые росы_1983-DVDRip-AVC.mkv
Формат : Matroska
Версия формата : Version 2
Размер файла : 1,46 Гбайт
Продолжительность : 1 ч. 23 м.
Общий поток : 2496 Кбит/сек
Дата кодирования : UTC 2014-02-20 06:11:12
Программа кодирования : mkvmerge v5.1.0 ('And so it goes') built on Nov 28 2011 23:58:28
Библиотека кодирования : libebml v1.2.3 + libmatroska v1.3.0
Видео
Идентификатор : 1
Формат : AVC
Формат/Информация : Advanced Video Codec
Профиль формата : High@L4.1
Параметр CABAC формата : Да
Параметр ReFrames формата : 15 кадров
Идентификатор кодека : V_MPEG4/ISO/AVC
Продолжительность : 1 ч. 23 м.
Битрейт : 2271 Кбит/сек
Ширина : 694 пикселя
Высота : 572 пикселя
Соотношение сторон : 1,294
Режим частоты кадров : Постоянный
Частота кадров : 25,000 кадров/сек
Цветовое пространство : YUV
Субдискретизация насыщенности : 4:2:0
Битовая глубина : 8 бит
Тип развёртки : Прогрессивная
Бит/(Пиксели*Кадры) : 0.229
Размер потока : 1,30 Гбайт (89%)
Библиотека кодирования : x264 core 142 r2389 956c8d8
Настройки программы : cabac=1 / ref=15 / deblock=1:-2:-2 / analyse=0x3:0x133 / me=umh / subme=11 / psy=1 / psy_rd=0.75:0.00 / mixed_ref=1 / me_range=24 / chroma_me=1 / trellis=2 / 8x8dct=1 / cqm=0 / deadzone=21,11 / fast_pskip=0 / chroma_qp_offset=-2 / threads=12 / lookahead_threads=2 / sliced_threads=0 / nr=0 / decimate=0 / interlaced=0 / bluray_compat=0 / constrained_intra=0 / bframes=7 / b_pyramid=2 / b_adapt=2 / b_bias=0 / direct=3 / weightb=1 / open_gop=0 / weightp=2 / keyint=250 / keyint_min=25 / scenecut=40 / intra_refresh=0 / rc=2pass / mbtree=0 / bitrate=2271 / ratetol=1.0 / qcomp=0.65 / qpmin=0 / qpmax=39 / qpstep=4 / cplxblur=20.0 / qblur=0.5 / ip_ratio=1.30 / pb_ratio=1.20 / aq=1:0.80
Язык : English
Default : Да
Forced : Нет
Основные цвета : BT.601 PAL
Характеристики трансфера : BT.470 System B, BT.470 System G
Коэффициенты матрицы : BT.601
Аудио
Идентификатор : 2
Формат : AC-3
Формат/Информация : Audio Coding 3
Расширение режима : CM (complete main)
Параметр Endianness формата : Big
Идентификатор кодека : A_AC3
Продолжительность : 1 ч. 23 м.
Вид битрейта : Постоянный
Битрейт : 224 Кбит/сек
Каналы : 2 канала
Расположение каналов : Front: L R
Частота : 48,0 КГц
Битовая глубина : 16 бит
Метод сжатия : С потерями
Задержка видео : 4 с. 752 мс.
Размер потока : 134 Мбайт (9%)
Язык : Russian
Default : Да
Forced : Нет
Скачать

Скачать торрент!

Как скачивать? · Что такое торрент? · Рейтинг и ограничения

Сайт не распространяет и не хранит электронные версии произведений, а лишь предоставляет доступ к создаваемому пользователями каталогу ссылок на торрент-файлы, которые содержат только списки хеш-сумм

[Профиль] [ЛС]
Показать сообщения:    
Ответить на тему

Текущее время: Сегодня 22:18

Часовой пояс: GMT + 4



Вы не можете начинать темы
Вы не можете отвечать на сообщения
Вы не можете редактировать свои сообщения
Вы не можете удалять свои сообщения
Вы не можете голосовать в опросах
Вы не можете прикреплять файлы к сообщениям
Вы не можете скачивать файлы