Куда боятся ступить ангелы / Там, куда не заглядывают ангелы / Where Angels Fear to Tread (Чарльз Старридж / Charles Sturridge) [1991, Великобритания, мелодрама, HDTV 1080i] DVO (НТВ+) + Sub Eng + Original Eng

Ответить на тему
 
Автор Сообщение

user ®

Стаж: 7 лет 7 месяцев

Сообщений: 20008

Пост Пост: #1 от 20-Фев-2014 06:25

[Цитировать]

Куда боятся ступить ангелы / Там, куда не заглядывают ангелы / Where Angels Fear to Tread
Страна: Великобритания
Студия: Sovereign Pictures, London Weekend Television (LWT), Stagescreen
Жанр: мелодрама
Год выпуска: 1991
Продолжительность: 01:47:58
Перевод: Профессиональный (двухголосый закадровый) НТВ+
Cубтитры: английские
Оригинальная аудиодорожка: английский
Режиссер: Чарльз Старридж / Charles Sturridge
В ролях: Руперт Грейвз, Хелен Миррен, Хелена Бонем Картер, Барбара Джеффорд, Джуди Дэвис, Томас Уитли, Софи Куллманн, Вашш Андерсон, Сильвия Бартер, Эйлин Дейвис
Описание: Молодая вдова Лилия Херритон едет в Италию, чтобы набраться сил. Через достаточно короткое время ее английские родственники получают известие о предстоящей помолвке Лилии с неким итальянцем Джино Карелла. Большего покушения на исконно британские порядки семейный клан Херритонов и представить себе не мог…
Экранизация первого романа классика английской литературы Эдуарда Моргана Форстера, выполненная в исключительно традиционном стиле, что и привлекает к этой картине поклонников всевозможных киноадаптаций литературных произведений.

IMDB
Доп. информация:
За оригинальную дорогу спасибо Нордер
Тип релиза: HDTV 1080i
Контейнер: MKV
Видео: AVC 1920x1080 (16:9)) 25.0fps Bit rate 5608Kbps
Аудио 1: MP2 48.0 KHz 2ch. 192kbps rus dvo
Аудио 2: AC3 48.0 KHz 2ch. 192kbps eng
Формат субтитров: softsub (SRT)

MediaInfo

Общее
Уникальный идентификатор : 195867667991666281502051253925065885378 (0x935ABD9E01C7910F9DF70505AA9D86C2)
Полное имя : E:\torrent\Where.Angels.Fear.to.Tread.1991.HDTV1080i.mkv
Формат : Matroska
Версия формата : Version 4 / Version 2
Размер файла : 4,61 Гбайт
Продолжительность : 1 ч. 47 м.
Общий поток : 6113 Кбит/сек
Дата кодирования : UTC 2014-02-19 05:17:55
Программа кодирования : mkvmerge v6.6.0 ('The Edge Of The In Between') built on Dec 1 2013 17:55:00
Библиотека кодирования : libebml v1.3.0 + libmatroska v1.4.1
Видео
Идентификатор : 1
Формат : AVC
Формат/Информация : Advanced Video Codec
Профиль формата : High@L4.0
Параметр CABAC формата : Да
Параметр ReFrames формата : 3 кадра
Идентификатор кодека : V_MPEG4/ISO/AVC
Продолжительность : 1 ч. 47 м.
Битрейт : 5608 Кбит/сек
Ширина : 1920 пикселей
Высота : 1080 пикселей
Соотношение сторон : 16:9
Режим частоты кадров : Постоянный
Частота кадров : 25,000 кадров/сек
Стандарт вещания : Component
Цветовое пространство : YUV
Субдискретизация насыщенности : 4:2:0
Битовая глубина : 8 бит
Тип развёртки : Чересстрочная
Порядок развёртки : Верхнее поле первое
Бит/(Пиксели*Кадры) : 0.108
Размер потока : 4,23 Гбайт (92%)
Заголовок : Where.Angels.Fear.to.Tread.1991.HDTV1080i
Default : Да
Forced : Нет
Основные цвета : BT.709
Характеристики трансфера : BT.709
Коэффициенты матрицы : BT.709
Аудио #1
Идентификатор : 2
Формат : MPEG Audio
Версия формата : Version 1
Профиль формата : Layer 2
Идентификатор кодека : A_MPEG/L2
Идентификатор кодека/Подсказка : MP2
Продолжительность : 1 ч. 47 м.
Вид битрейта : Постоянный
Битрейт : 192 Кбит/сек
Каналы : 2 канала
Частота : 48,0 КГц
Метод сжатия : С потерями
Размер потока : 148 Мбайт (3%)
Заголовок : Where.Angels.Fear.to.Tread_MP2_2ch_rus_dvo_NTV+
Язык : Russian
Default : Да
Forced : Нет
Аудио #2
Идентификатор : 3
Формат : AC-3
Формат/Информация : Audio Coding 3
Расширение режима : CM (complete main)
Параметр Endianness формата : Big
Идентификатор кодека : A_AC3
Продолжительность : 1 ч. 47 м.
Вид битрейта : Постоянный
Битрейт : 192 Кбит/сек
Каналы : 2 канала
Расположение каналов : Front: L R
Частота : 48,0 КГц
Битовая глубина : 16 бит
Метод сжатия : С потерями
Размер потока : 148 Мбайт (3%)
Заголовок : Where.Angels.Fear.to.Tread_AC3_2ch_original eng
Язык : English
Default : Нет
Forced : Нет
Текст
Идентификатор : 4
Формат : UTF-8
Идентификатор кодека : S_TEXT/UTF8
Идентификатор кодека/Информация : UTF-8 Plain Text
Заголовок : Where.Angels.Fear.to.Tread_subtitle eng
Язык : English
Default : Нет
Forced : Нет

Скриншот с названием фильма

Скриншоты

Сравнение с DVD


Скачать

Скачать торрент!

Как скачивать? · Что такое торрент? · Рейтинг и ограничения

Сайт не распространяет и не хранит электронные версии произведений, а лишь предоставляет доступ к создаваемому пользователями каталогу ссылок на торрент-файлы, которые содержат только списки хеш-сумм

[Профиль] [ЛС]
Показать сообщения:    
Ответить на тему

Текущее время: Сегодня 12:12

Часовой пояс: GMT + 4



Вы не можете начинать темы
Вы не можете отвечать на сообщения
Вы не можете редактировать свои сообщения
Вы не можете удалять свои сообщения
Вы не можете голосовать в опросах
Вы не можете прикреплять файлы к сообщениям
Вы не можете скачивать файлы