Отцы и деды (Юрий Егоров) [1982, лирическая комедия, DVDRip-AVC]

Ответить на тему
 
Автор Сообщение

user ®

Стаж: 7 лет 7 месяцев

Сообщений: 20008

Пост Пост: #1 от 20-Фев-2014 06:25

[Цитировать]

Отцы и деды
Жанр: лирическая комедия
Год выпуска: 1982
Продолжительность: 01:19:13
Режиссёр: Юрий Егоров
В ролях: Анатолий Папанов, Валентин Смирнитский, Алексей Ясулович, Галина Польских, Людмила Аринина, Лидия Кузнецова, Евгений Лазарев, Николай Трофимов, Вадим Андреев, Николай Мерзликин, Ирина Бобкова, Валентин Брылеев, Николай Горлов, Станислав Коренев, Юрий Маляров, Мария Пискунова
Описание: Жили-были Луков-дед, Луков-сын и Луков-внук (еще, разумеется, была Лукова-мама, жена Лукова-сына). Дед, которому недалеко до пенсии, остается человеком энергичным и жизнелюбивым. Ему до всего есть дело - в первую очередь, до дел сына и внука. Но когда деду намекают на его преклонный возраст и бесперспективность, заявив, что время его прошло, он решает доказать окружающим, что если у него седина в бороде, бес в ребро стукнет обязательно, и, соответственно, его личная жизнь еще только начинается. И если он захочет, то сможет всё: не только остановить трактор и спрыгнуть с балкона, но даже жениться...
Качество видео: DVDRip-AVC
Формат видео: MKV
Видео: 706x386@754x386, 25.000 fps, AVC, ~2252 Kbps
Аудио: Russian (Dolby AC3, 6 ch, 384 kbps, 48 kHz)

MediaInfo

raw [info]: 706x386p 1:1 @ 25/1 fps (cfr)
x264 [info]: using SAR=1/1
x264 [info]: using cpu capabilities: MMX2 SSE2Fast SSSE3 SSE4.2 AVX
x264 [info]: profile High, level 4.1
x264 [info]: frame I:666 Avg QP:16.04 size: 45756
x264 [info]: frame P:24128 Avg QP:18.55 size: 22650
x264 [info]: frame B:94052 Avg QP:21.04 size: 8097-Общее
Уникальный идентификатор : 180344613269396369464992879173145269245 (0x87AD1BEE01C22C02B9BDA85E521513FD)
Полное имя : D:\Отцы и деды_1982-DVDRip-AVC (1).mkv
Формат : Matroska
Версия формата : Version 2
Размер файла : 1,46 Гбайт
Продолжительность : 1 ч. 19 м.
Общий поток : 2638 Кбит/сек
Дата кодирования : UTC 2014-02-19 17:06:45
Программа кодирования : mkvmerge v5.1.0 ('And so it goes') built on Nov 28 2011 23:58:28
Библиотека кодирования : libebml v1.2.3 + libmatroska v1.3.0
Видео
Идентификатор : 1
Формат : AVC
Формат/Информация : Advanced Video Codec
Профиль формата : High@L4.1
Параметр CABAC формата : Да
Параметр ReFrames формата : 16 кадров
Идентификатор кодека : V_MPEG4/ISO/AVC
Продолжительность : 1 ч. 19 м.
Битрейт : 2252 Кбит/сек
Ширина : 706 пикселей
Высота : 386 пикселей
Соотношение сторон : 1,953
Соотношение сторон в оригинале : 1,85:1
Режим частоты кадров : Постоянный
Частота кадров : 25,000 кадров/сек
Цветовое пространство : YUV
Субдискретизация насыщенности : 4:2:0
Битовая глубина : 8 бит
Тип развёртки : Прогрессивная
Бит/(Пиксели*Кадры) : 0.331
Размер потока : 1,22 Гбайт (83%)
Библиотека кодирования : x264 core 142 r2389 956c8d8
Настройки программы : cabac=1 / ref=16 / deblock=1:-2:-2 / analyse=0x3:0x133 / me=umh / subme=11 / psy=1 / psy_rd=1.05:0.15 / mixed_ref=1 / me_range=24 / chroma_me=1 / trellis=2 / 8x8dct=1 / cqm=0 / deadzone=21,11 / fast_pskip=0 / chroma_qp_offset=-3 / threads=12 / lookahead_threads=3 / sliced_threads=0 / nr=0 / decimate=0 / interlaced=0 / bluray_compat=0 / constrained_intra=0 / bframes=16 / b_pyramid=2 / b_adapt=2 / b_bias=0 / direct=3 / weightb=1 / open_gop=0 / weightp=2 / keyint=250 / keyint_min=25 / scenecut=40 / intra_refresh=0 / rc_lookahead=60 / rc=2pass / mbtree=1 / bitrate=2252 / ratetol=1.0 / qcomp=0.65 / qpmin=0 / qpmax=39 / qpstep=4 / cplxblur=20.0 / qblur=0.5 / ip_ratio=1.30 / aq=1:1.00
Язык : English
Default : Да
Forced : Нет
Основные цвета : BT.601 PAL
Характеристики трансфера : BT.470 System B, BT.470 System G
Коэффициенты матрицы : BT.601
Аудио
Идентификатор : 2
Формат : AC-3
Формат/Информация : Audio Coding 3
Расширение режима : CM (complete main)
Параметр Endianness формата : Big
Идентификатор кодека : A_AC3
Продолжительность : 1 ч. 19 м.
Вид битрейта : Постоянный
Битрейт : 384 Кбит/сек
Каналы : 6 каналов
Расположение каналов : Front: L C R, Side: L R, LFE
Частота : 48,0 КГц
Битовая глубина : 16 бит
Метод сжатия : С потерями
Размер потока : 218 Мбайт (15%)
Язык : Russian
Default : Да
Forced : Нет
Скачать

Скачать торрент!

Как скачивать? · Что такое торрент? · Рейтинг и ограничения

Сайт не распространяет и не хранит электронные версии произведений, а лишь предоставляет доступ к создаваемому пользователями каталогу ссылок на торрент-файлы, которые содержат только списки хеш-сумм

[Профиль] [ЛС]
Показать сообщения:    
Ответить на тему

Текущее время: Сегодня 02:28

Часовой пояс: GMT + 4



Вы не можете начинать темы
Вы не можете отвечать на сообщения
Вы не можете редактировать свои сообщения
Вы не можете удалять свои сообщения
Вы не можете голосовать в опросах
Вы не можете прикреплять файлы к сообщениям
Вы не можете скачивать файлы