Инспектор ГАИ (Эльдор Уразбаев) [1982, Психологическая драма, DVDRip-AVC]

Ответить на тему
 
Автор Сообщение

user ®

Стаж: 7 лет 7 месяцев

Сообщений: 20008

Пост Пост: #1 от 19-Фев-2014 17:10

[Цитировать]

Инспектор ГАИ
Жанр: Психологическая драма
Год выпуска: 1982
Продолжительность: 01:15:35
Режиссёр: Эльдор Уразбаев
В ролях: Сергей Никоненко, Никита Михалков, Олег Ефремов, Марина Левтова, Николай Парфенов, Виктор Ильичев, Раиса Рязанова, Юрий Кузьменков, Николай Засухин, Евгений Перов, Анатолий Ганшин, Данила Петров.
Описание: Образ на редкость честного инспектора ГАИ, пострадавшего за свою принципиальность, стоит в одном ряду с самыми любимыми милиционерами советского экрана.
Петр Зыкин, скромный инспектор ГАИ, однажды останавливает наглого и откровенного нарушителя — директора станции техобслуживания Турнова (очень убедительная работа Никиты Михалкова). Штрафник пытается воспользоваться своими связями и "поставить на место" не в меру ретивого милиционера...
Качество видео: DVDRip-AVC
Формат видео: MKV
Видео: 698x558@744x558, (4:3), 25.000 fps, AVC, ~2499 Kbps
Аудио: Russian (Dolby AC3, 1 ch) 192 Kbps

MediaInfo

raw [info]: 698x558p 16:15 @ 25/1 fps (cfr)
x264 [info]: using SAR=16/15
x264 [info]: using cpu capabilities: MMX2 SSE2Fast SSSE3 SSE4.2 AVX
x264 [info]: profile Main, level 4.1
x264 [info]: frame I:563 Avg QP:18.54 size: 66689
x264 [info]: frame P:23558 Avg QP:21.00 size: 30239
x264 [info]: frame B:89271 Avg QP:23.39 size: 7307-Общее
Уникальный идентификатор : 170221077483427575896154317020204769612 (0x800F63145722023F8D418DB88E7A214C)
Полное имя : D:\Инспектор ГАИ_1982-DVDRip-AVC.mkv
Формат : Matroska
Версия формата : Version 4 / Version 2
Размер файла : 1,42 Гбайт
Продолжительность : 1 ч. 15 м.
Общий поток : 2693 Кбит/сек
Дата кодирования : UTC 2014-02-19 11:38:45
Программа кодирования : mkvmerge v6.1.0 ('Old Devil') built on Mar 4 2013 09:10:42
Библиотека кодирования : libebml v1.3.0 + libmatroska v1.4.0
Видео
Идентификатор : 1
Формат : AVC
Формат/Информация : Advanced Video Codec
Профиль формата : High@L4.1
Параметр CABAC формата : Да
Параметр ReFrames формата : 15 кадров
Идентификатор кодека : V_MPEG4/ISO/AVC
Продолжительность : 1 ч. 15 м.
Битрейт : 2500 Кбит/сек
Ширина : 698 пикселей
Высота : 558 пикселей
Соотношение сторон : 4:3
Соотношение сторон в оригинале : 4:3
Режим частоты кадров : Постоянный
Частота кадров : 25,000 кадров/сек
Цветовое пространство : YUV
Субдискретизация насыщенности : 4:2:0
Битовая глубина : 8 бит
Тип развёртки : Прогрессивная
Бит/(Пиксели*Кадры) : 0.257
Размер потока : 1,29 Гбайт (91%)
Библиотека кодирования : x264 core 142 r2389 956c8d8
Настройки программы : cabac=1 / ref=15 / deblock=1:-2:-2 / analyse=0x3:0x133 / me=umh / subme=11 / psy=1 / psy_rd=1.05:0.15 / mixed_ref=1 / me_range=24 / chroma_me=1 / trellis=2 / 8x8dct=1 / cqm=0 / deadzone=21,11 / fast_pskip=0 / chroma_qp_offset=-3 / threads=12 / lookahead_threads=2 / sliced_threads=0 / nr=0 / decimate=0 / interlaced=0 / bluray_compat=0 / constrained_intra=0 / bframes=9 / b_pyramid=2 / b_adapt=2 / b_bias=0 / direct=3 / weightb=1 / open_gop=0 / weightp=2 / keyint=250 / keyint_min=25 / scenecut=40 / intra_refresh=0 / rc_lookahead=60 / rc=2pass / mbtree=1 / bitrate=2500 / ratetol=1.0 / qcomp=0.65 / qpmin=0 / qpmax=39 / qpstep=4 / cplxblur=20.0 / qblur=0.5 / ip_ratio=1.30 / aq=1:1.00
Default : Да
Forced : Нет
Основные цвета : BT.601 PAL
Характеристики трансфера : BT.470 System B, BT.470 System G
Коэффициенты матрицы : BT.601
Аудио
Идентификатор : 2
Формат : AC-3
Формат/Информация : Audio Coding 3
Расширение режима : CM (complete main)
Параметр Endianness формата : Big
Идентификатор кодека : A_AC3
Продолжительность : 1 ч. 15 м.
Вид битрейта : Постоянный
Битрейт : 192 Кбит/сек
Каналы : 1 канал
Расположение каналов : Front: C
Частота : 48,0 КГц
Битовая глубина : 16 бит
Метод сжатия : С потерями
Размер потока : 104 Мбайт (7%)
Default : Да
Forced : Нет
Скачать

Скачать торрент!

Как скачивать? · Что такое торрент? · Рейтинг и ограничения

Сайт не распространяет и не хранит электронные версии произведений, а лишь предоставляет доступ к создаваемому пользователями каталогу ссылок на торрент-файлы, которые содержат только списки хеш-сумм

[Профиль] [ЛС]
Показать сообщения:    
Ответить на тему

Текущее время: Сегодня 00:24

Часовой пояс: GMT + 4



Вы не можете начинать темы
Вы не можете отвечать на сообщения
Вы не можете редактировать свои сообщения
Вы не можете удалять свои сообщения
Вы не можете голосовать в опросах
Вы не можете прикреплять файлы к сообщениям
Вы не можете скачивать файлы