Пристегните ремни / Fasten Your Seatbelt / Rol-lu-ko-seu-tu (Ха Чон У / Ha Jeong-woo) [2013, Южная Корея, комедия, HDRip] DVO

Ответить на тему
 
Автор Сообщение

user ®

Стаж: 11 лет

Сообщений: 15151

Пост Пост: #1 от 19-Фев-2014 14:00

[Цитировать]

Пристегните ремни / Fasten Your Seatbelt / Rol-lu-ko-seu-tu
Страна: Южная Корея
Жанр: комедия
Год выпуска: 2013
Продолжительность: 01:33:22-Перевод: Любительский (двухголосый закадровый) den904 & DeadSno
Cубтитры: нет
Оригинальная аудиодорожка: нет-Режиссер: Ха Чон У / Ha Jeong-woo
В ролях: Чон Гён Хо, Хан Сон Чхон, Ким Чжэ Ха, Ким Ги Чхон, Ким Пён Ок, Ма Дон Сок-Описание: Самолет с поп-звездой на борту отправляется из Кимпо в Токио. В полете, он сталкивается с неожиданной бурей…- -Релиз группы
-Качество видео: HDRip
Формат видео: AVI
Видео: XviD, 720x304 (2.37:1), 23.976 fps, 2038 kbps avg, 0.39 bit/pixel
Аудио: Русский MPEG layer 3, 192 kbps- -

Доп. информация

Переводчик: Skyworker
Рип, Звук: Public Enemy (((

MediaInfo

Format : AVI
Format/Info : Audio Video Interleave
File size : 1.46 GiB
Duration : 1h 33mn
Overall bit rate : 2 240 Kbps
Writing application : VirtualDubMod 1.5.10.3 | www.virtualdub-fr.org || (build 2550/release)
Writing library : VirtualDubMod build 2550/release
Video
ID : 0
Format : MPEG-4 Visual
Format profile : Advanced Simple@L5
Format settings, BVOP : 1
Format settings, QPel : No
Format settings, GMC : No warppoints
Format settings, Matrix : Custom
Codec ID : XVID
Codec ID/Hint : XviD
Duration : 1h 33mn
Bit rate : 2 039 Kbps
Width : 720 pixels
Height : 304 pixels
Display aspect ratio : 2.35:1
Frame rate : 23.976 fps
Color space : YUV
Chroma subsampling : 4:2:0
Bit depth : 8 bits
Scan type : Progressive
Compression mode : Lossy
Bits/(Pixel*Frame) : 0.388
Stream size : 1.33 GiB (91%)
Writing library : XviD 73
Audio
ID : 1
Format : MPEG Audio
Format version : Version 1
Format profile : Layer 3
Codec ID : 55
Codec ID/Hint : MP3
Duration : 1h 33mn
Bit rate mode : Constant
Bit rate : 192 Kbps
Channel(s) : 2 channels
Sampling rate : 48.0 KHz
Compression mode : Lossy
Stream size : 128 MiB (9%)
Alignment : Aligned on interleaves
Interleave, duration : 42 ms (1.00 video frame)
Interleave, preload duration : 504 ms

Скриншот с названием

Скриншоты

Скачать

Скачать торрент! Пристегните ремни / Fasten Your Seatbelt / Rol-lu-ko-seu-tu (Ха Чон У / Ha Jeong-woo) [2013, Южная Корея, комедия, HDRip] DVO

Как скачивать? · Что такое торрент? · Рейтинг и ограничения

Сайт не распространяет и не хранит электронные версии произведений, а лишь предоставляет доступ к создаваемому пользователями каталогу ссылок на торрент-файлы, которые содержат только списки хеш-сумм

[Профиль] [ЛС]
Показать сообщения:    
Ответить на тему

Текущее время: Сегодня 10:22

Часовой пояс: GMT + 4



Вы не можете начинать темы
Вы не можете отвечать на сообщения
Вы не можете редактировать свои сообщения
Вы не можете удалять свои сообщения
Вы не можете голосовать в опросах
Вы не можете прикреплять файлы к сообщениям
Вы не можете скачивать файлы