Красавица, ты любовь моя / Gori Tere Pyaar Mein (Пунит Мальхотра / Punit Malhotra) [2013, Индия, Комедия, мелодрама, HDRip] MVO (ICG) + Original + Sub Rus

Ответить на тему
 
Автор Сообщение

user ®

Стаж: 13 лет

Сообщений: 15070

Пост Пост: #1 от 19-Фев-2014 07:40

[Цитировать]

Красавица, ты любовь моя / Gori Tere Pyaar Mein
Страна: Индия
Жанр: Комедия, мелодрама
Год выпуска: 2013
Продолжительность: 02:24:36
Перевод: Любительский (многоголосый закадровый) ICG
Cубтитры: русские
Оригинальная аудиодорожка: хинди
Режиссер: Пунит Мальхотра / Punit Malhotra
В ролях: Имран Кхан, Карина Капур, Низхалгал Рави, Анупам Кхер, Шраддха Капур, Эша Гупта, Сухата Кумар, Кавиш Маджмудар, Танвир Сингх, Винит Сингх
Описание: Шрирам Венкат очень поверхностный парень, который не ценит отношения, семью, друзей, жизнь и страну. Не обязательно в такой последовательности, потому что и упорядоченность его тоже не заботит. Это делает его явной «черной» овцой в семье. В какой-то момент это легкомысленный человек начинает рассказывать историю своих сумасшедших отношений с бывшей подругой Диа Шармой, общественной активисткой, которая хотела изменить мир. Притяжение первоначально было только физическим, но затем получило эмоциональный заряд и, наконец, завело их в дебри, где столкнулись идеологии и образы мыслей, что отдалило их друг от друга. Горько. Шрирам полагал, что благотворительность начинается и заканчивается в стенах дома. В то время как Диа считала, что человек должен не ждать перемен, которых хочет добиться, а делать их сам. Однако Шрирам понимает, что история с Диа не закончилась и он все еще любит ее, и что она является лучшим, что когда-либо было. .. и случится в его жизни. Но Диа переехала и сейчас находится в глухой деревушке Джумли в штате Гуджарат. Шрирам едет в эту деревушку вернуть свою любовь…

Сэмпл: http://yadi.sk/d/heDyMB8bJ8ukh
Релиз подготовлен: , по заказу
Перевод: Rummata
Качество видео: HDRip (BDRip 720p)
Формат видео: AVI
Видео: 720x304 (2.37:1), 24 fps, XviD MPEG-4 ~1461 kbps avg, 0.2 bit/pixel
Аудио: Русский 48 kHz, AC3 Dolby Digital, 6 (L C R, Side: L R, LFE), ~448kbps avg
Аудио 2: Хинди 48 kHz, AC3 Dolby Digital, 2 (L,R), ~224kbps avg
Формат субтитров: softsub (SRT)

Доп. информация

Вы можете нас любить, можете ненавидеть. Но игнорировать нас у вас не получится. (с) (по мотивам рассказов дядюшки Шаха)
P.S. При копировании релиза на другие ресурсы сохраняйте оформление до буковки!
И просто огромная просьба - не выкидывайте из раздач субтитры и дорожки!
В раздаче фильма убедительная просьба обсуждать сам фильм.
Убедительная просьба отказаться от оскорбления участников группы, в завуалированной форме в том числе.

MediaInfo

General
Complete name : D:\Video\Индийские фильмы\Krasavica.Ty.Lubov.Moya.2013.HDRip.XviD.ICG.GeneralFilm\Krasavica.Ty.Lubov.Moya.2013.HDRip.XviD.ICG.GeneralFilm.avi
Format : AVI
Format/Info : Audio Video Interleave
Format profile : OpenDML
File size : 2.17 GiB
Duration : 2h 24mn
Overall bit rate : 2 151 Kbps
Writing application : VirtualDubModRus 1.5.10.2 (build 2542/release)
Writing library : VirtualDubMod build 2542/release
Video
ID : 0
Format : MPEG-4 Visual
Format profile : Advanced Simple@L5
Format settings, BVOP : 1
Format settings, QPel : No
Format settings, GMC : No warppoints
Format settings, Matrix : Default (MPEG)
Codec ID : XVID
Codec ID/Hint : XviD
Duration : 2h 24mn
Bit rate : 1 461 Kbps
Width : 720 pixels
Height : 304 pixels
Display aspect ratio : 2.35:1
Frame rate : 23.976 fps
Color space : YUV
Chroma subsampling : 4:2:0
Bit depth : 8 bits
Scan type : Progressive
Compression mode : Lossy
Bits/(Pixel*Frame) : 0.278
Stream size : 1.48 GiB (68%)
Writing library : XviD 64
Audio #1
ID : 1
Format : AC-3
Format/Info : Audio Coding 3
Mode extension : CM (complete main)
Format settings, Endianness : Big
Codec ID : 2000
Duration : 2h 24mn
Bit rate mode : Constant
Bit rate : 448 Kbps
Channel(s) : 6 channels
Channel positions : Front: L C R, Side: L R, LFE
Sampling rate : 48.0 KHz
Bit depth : 16 bits
Compression mode : Lossy
Delay relative to video : 10ms
Stream size : 463 MiB (21%)
Alignment : Split accross interleaves
Interleave, duration : 42 ms (1.00 video frame)
Interleave, preload duration : 500 ms
Audio #2
ID : 2
Format : AC-3
Format/Info : Audio Coding 3
Mode extension : CM (complete main)
Format settings, Endianness : Big
Codec ID : 2000
Duration : 2h 24mn
Bit rate mode : Constant
Bit rate : 224 Kbps
Channel(s) : 2 channels
Channel positions : Front: L R
Sampling rate : 48.0 KHz
Bit depth : 16 bits
Compression mode : Lossy
Stream size : 232 MiB (10%)
Alignment : Aligned on interleaves
Interleave, duration : 42 ms (1.00 video frame)
Interleave, preload duration : 512 ms

Скриншот c названием фильма

Скриншоты

Скачать

Скачать торрент! Красавица, ты любовь моя / Gori Tere Pyaar Mein (Пунит Мальхотра / Punit Malhotra) [2013, Индия, Комедия, мелодрама, HDRip] MVO (ICG) + Original + Sub Rus

Как скачивать? · Что такое торрент? · Рейтинг и ограничения

Сайт не распространяет и не хранит электронные версии произведений, а лишь предоставляет доступ к создаваемому пользователями каталогу ссылок на торрент-файлы, которые содержат только списки хеш-сумм

[Профиль] [ЛС]
Показать сообщения:    
Ответить на тему

Текущее время: Сегодня 16:36

Часовой пояс: GMT + 4



Вы не можете начинать темы
Вы не можете отвечать на сообщения
Вы не можете редактировать свои сообщения
Вы не можете удалять свои сообщения
Вы не можете голосовать в опросах
Вы не можете прикреплять файлы к сообщениям
Вы не можете скачивать файлы