Убойные каникулы / Tucker & Dale vs. Evil (Эли Крэйг / Eli Craig ) [2010, Канада, США, ужасы, комедия, BDRip 1080p] DUB + VO (Котов) + Sub (Rus, Eng) + Original Eng + Eng (Commentary)

Ответить на тему
 
Автор Сообщение

user ®

Стаж: 7 лет 7 месяцев

Сообщений: 20008

Пост Пост: #1 от 19-Фев-2014 02:20

[Цитировать]

Убойные каникулы / Tucker and Dale vs Evil Страна: Канада, США
Жанр: ужасы, комедия
Год выпуска: 2010
Продолжительность: 01:28:43
Перевод 1: Профессиональный (дублированный)
Перевод 2: Одноголосый закадровый, В. Котов
Cубтитры: Russian (Д. Пучков), English, English (SDH)
Оригинальная аудиодорожка: английский
Режиссер: Эли Крэйг / Eli Craig
В ролях: Тайлер Лэбин, Алан Тьюдик, Катрина Боуден, Джесси Мосс, Филип Грэйнджер, Брэндон Джей МакЛарен, Кристи Лэйн, Челан Симмонс, Трэвис Нельсон, Алекс Арсено
Описание: Группа студентов колледжа отправляется за город, чтобы вовсю оторваться на выходных: попить пивка, поплавать в озере и подышать чистым лесным воздухом. Но уже в первый день они сталкиваются с неотесанными фермерами Такером и Дэйлом, также решившими как следует оттянуться на природе. Приняв этих диковатых, но, в сущности, симпатичных ребят за «злобных местных», горожане решают дать деревенщине жесткий отпор. Но с каждым их шагом становится только хуже...
Релиз от: by Skazhutin
Тип релиза: BDRip 1080p
Контейнер: MKV
Видео: 1920x816 at 23.976 fps, x264@L4.1, 2pass, ~9000 kbps avg
Аудио#1: Russian: 48 kHz, DTS, 3/2 (L,C,R,l,r) + LFE ch, ~1536.00 kbps avg |Дубляж|
Аудио#2: Russian: 48 kHz, DTS, 3/2 (L,C,R,l,r) + LFE ch, ~1536.00 kbps avg |Одноголосый закадровый, В. Котов|
Аудио#3: English: 48 kHz, DTS, 3/2 (L,C,R,l,r) + LFE ch, ~1536.00 kbps avg
Аудио#4: English: 48 kHz, AAC, 2/0 (L,R) ch, ~63.00 kbps avg |Commentary|
Скачать: Сэмпл

Скриншоты

MediaInfo

General
Unique ID : 172137309572959496614006492878735603488 (0x8180709DA1EECA87A2C9EC9DB172F720)
Complete name : Tucker.And.Dale.vs.Evil.2010.1080p.BluRay.2xRus.Eng.HDCLUB.mkv
Format : Matroska
Format version : Version 2
File size : 8.42 GiB
Duration : 1h 28mn
Overall bit rate : 13.6 Mbps
Movie name : Tucker and Dale vs Evil (2010) - Release for HDCLUB by Skazhutin
Encoded date : UTC 2012-02-13 13:35:34
Writing application : mkvmerge v5.2.1 ('A Far Off Place') built on Jan 2 2012 23:21:10
Writing library : libebml v1.2.3 + libmatroska v1.3.0
Attachment : Yes / Yes
Video
ID : 1
Format : AVC
Format/Info : Advanced Video Codec
Format profile : High@L4.1
Format settings, CABAC : Yes
Format settings, ReFrames : 5 frames
Codec ID : V_MPEG4/ISO/AVC
Duration : 1h 28mn
Nominal bit rate : 9 000 Kbps
Width : 1 920 pixels
Height : 816 pixels
Display aspect ratio : 2.35:1
Frame rate : 23.976 fps
Color space : YUV
Chroma subsampling : 4:2:0
Bit depth : 8 bits
Scan type : Progressive
Bits/(Pixel*Frame) : 0.240
Title : Release for HDCLUB
Writing library : x264 core 120 r2119 0637cd6
Encoding settings : cabac=1 / ref=5 / deblock=1:-3:-3 / analyse=0x3:0x133 / me=umh / subme=11 / psy=1 / psy_rd=0.90:0.00 / mixed_ref=1 / me_range=48 / chroma_me=1 / trellis=2 / 8x8dct=1 / cqm=0 / deadzone=21,11 / fast_pskip=0 / chroma_qp_offset=-2 / threads=12 / sliced_threads=0 / nr=0 / decimate=0 / interlaced=0 / bluray_compat=0 / constrained_intra=0 / bframes=7 / b_pyramid=2 / b_adapt=2 / b_bias=0 / direct=3 / weightb=1 / open_gop=0 / weightp=2 / keyint=250 / keyint_min=23 / scenecut=40 / intra_refresh=0 / rc_lookahead=40 / rc=2pass / mbtree=1 / bitrate=9000 / ratetol=1.0 / qcomp=0.60 / qpmin=0 / qpmax=69 / qpstep=4 / cplxblur=20.0 / qblur=0.5 / ip_ratio=1.40 / aq=2:0.80
Language : English
Default : Yes
Forced : No
Audio #1
ID : 2
Format : DTS
Format/Info : Digital Theater Systems
Codec ID : A_DTS
Duration : 1h 28mn
Bit rate mode : Constant
Bit rate : 1 510 Kbps
Channel(s) : 6 channels
Channel positions : Front: L C R, Side: L R, LFE
Sampling rate : 48.0 KHz
Bit depth : 24 bits
Compression mode : Lossy
Stream size : 958 MiB (11%)
Title : DTS 5.1 @ 1536 kbps - Дублированный
Language : Russian
Default : Yes
Forced : No
Audio #2
ID : 3
Format : DTS
Format/Info : Digital Theater Systems
Codec ID : A_DTS
Duration : 1h 28mn
Bit rate mode : Constant
Bit rate : 1 510 Kbps
Channel(s) : 6 channels
Channel positions : Front: L C R, Side: L R, LFE
Sampling rate : 48.0 KHz
Bit depth : 24 bits
Compression mode : Lossy
Stream size : 958 MiB (11%)
Title : DTS 5.1 @ 1536 kbps - Одноголосный, В. Котов
Language : Russian
Default : No
Forced : No
Audio #3
ID : 4
Format : DTS
Format/Info : Digital Theater Systems
Codec ID : A_DTS
Duration : 1h 28mn
Bit rate mode : Constant
Bit rate : 1 510 Kbps
Channel(s) : 6 channels
Channel positions : Front: L C R, Side: L R, LFE
Sampling rate : 48.0 KHz
Bit depth : 24 bits
Compression mode : Lossy
Stream size : 958 MiB (11%)
Title : DTS 5.1 @ 1536 kbps
Language : English
Default : No
Forced : No
Audio #4
ID : 5
Format : AAC
Format/Info : Advanced Audio Codec
Format profile : HE-AAC / LC
Codec ID : A_AAC
Duration : 1h 28mn
Channel(s) : 2 channels
Channel positions : Front: L R
Sampling rate : 48.0 KHz / 24.0 KHz
Compression mode : Lossy
Title : AAC-HE 2.0 @ 63 kbps - Commentary
Language : English
Default : No
Forced : No
Text #1
ID : 6
Format : UTF-8
Codec ID : S_TEXT/UTF8
Codec ID/Info : UTF-8 Plain Text
Title : Goblin
Language : Russian
Default : No
Forced : No
Text #2
ID : 7
Format : UTF-8
Codec ID : S_TEXT/UTF8
Codec ID/Info : UTF-8 Plain Text
Language : English
Default : No
Forced : No
Text #3
ID : 8
Format : UTF-8
Codec ID : S_TEXT/UTF8
Codec ID/Info : UTF-8 Plain Text
Title : SDH
Language : English
Default : No
Forced : No
Menu
00:00:00.000 : en:Chapter 1
00:10:48.439 : en:Chapter 2
00:18:57.845 : en:Chapter 3
00:30:29.411 : en:Chapter 4
00:37:55.732 : en:Chapter 5
00:45:39.904 : en:Chapter 6
00:54:46.408 : en:Chapter 7
01:02:39.339 : en:Chapter 8
01:10:58.129 : en:Chapter 9
01:23:00.184 : en:Chapter 10

x264log

y4m [info]: 1920x816p 0:0 @ 24000/1001 fps (cfr)
x264 [info]: using cpu capabilities: MMX2 SSE2Fast SSSE3 FastShuffle SSE4.2 AVX
x264 [info]: profile High, level 4.1
x264 [info]: frame I:1271 Avg QP:11.07 size:296345
x264 [info]: frame P:31127 Avg QP:14.19 size:100337
x264 [info]: frame B:95216 Avg QP:17.83 size: 26113
x264 [info]: consecutive B-frames: 4.4% 3.3% 9.3% 23.9% 17.5% 35.9% 4.4% 1.
4%
x264 [info]: mb I I16..4: 5.1% 68.3% 26.6%
x264 [info]: mb P I16..4: 1.1% 15.3% 1.8% P16..4: 26.1% 29.6% 9.9% 5.0% 0
.7% skip:10.5%
x264 [info]: mb B I16..4: 0.2% 2.0% 0.2% B16..8: 32.3% 19.7% 2.9% direct:
7.3% skip:35.4% L0:42.4% L1:40.2% BI:17.4%
x264 [info]: 8x8 transform intra:82.2% inter:48.1%
x264 [info]: direct mvs spatial:98.9% temporal:1.1%
x264 [info]: coded y,uvDC,uvAC intra: 87.6% 78.5% 58.2% inter: 28.9% 21.0% 9.9%
x264 [info]: i16 v,h,dc,p: 50% 11% 8% 32%
x264 [info]: i8 v,h,dc,ddl,ddr,vr,hd,vl,hu: 13% 10% 8% 9% 11% 12% 11% 13% 13%
x264 [info]: i4 v,h,dc,ddl,ddr,vr,hd,vl,hu: 12% 8% 9% 8% 15% 14% 12% 10% 11%
x264 [info]: i8c dc,h,v,p: 44% 24% 19% 13%
x264 [info]: Weighted P-Frames: Y:2.3% UV:1.0%
x264 [info]: ref P L0: 49.8% 10.1% 22.0% 8.6% 8.5% 0.9% 0.0%
x264 [info]: ref B L0: 76.7% 16.6% 5.1% 1.6%
x264 [info]: ref B L1: 92.6% 7.4%
x264 [info]: kb/s:8997.45
encoded 127614 frames, 3.50 fps, 8997.45 kb/s

Доп. информация

  • Сохранены оригинальные чаптеры как на Blu-ray.
  • Благодарность Вячеславу Котову за перевод.
  • Перевод был заказан и оплачен следующими товарищами: urban92, MrRose, DREADG, Doctor_Joker_, mihey10, Slimka, Pr0peLLer, Ace34, tsr, СЕРДЖ84.
Скачать

Скачать торрент!

Как скачивать? · Что такое торрент? · Рейтинг и ограничения

Сайт не распространяет и не хранит электронные версии произведений, а лишь предоставляет доступ к создаваемому пользователями каталогу ссылок на торрент-файлы, которые содержат только списки хеш-сумм

[Профиль] [ЛС]
Показать сообщения:    
Ответить на тему

Текущее время: Сегодня 14:34

Часовой пояс: GMT + 4



Вы не можете начинать темы
Вы не можете отвечать на сообщения
Вы не можете редактировать свои сообщения
Вы не можете удалять свои сообщения
Вы не можете голосовать в опросах
Вы не можете прикреплять файлы к сообщениям
Вы не можете скачивать файлы