Лучше не бывает / As Good as It Gets (Джеймс Л. Брукс / James L. Brooks) [1997, США, драма, мелодрама, комедия, BDRip 1080p] Dub + 3x MVO + 2x AVO + DVO (Ukr) + Original (Eng) + Sub (Rus, Eng)

Ответить на тему
 
Автор Сообщение

user ®

Стаж: 7 лет 7 месяцев

Сообщений: 20008

Пост Пост: #1 от 19-Фев-2014 02:20

[Цитировать]

Лучше не бывает / As Good As It Gets«A comedy from the heart that goes for the throat»- Страна: США
Жанр: драма, мелодрама, комедия
Год выпуска: 1997
Продолжительность: 02:18:38-Перевод №1: Профессиональный (полное дублирование)
Перевод №2: Профессиональный (многоголосый закадровый) - Супербит
Перевод №3: Профессиональный (многоголосый закадровый) - Первый канал
Перевод №4: Профессиональный (многоголосый закадровый) - Видеосервис
Перевод №5: Авторский (одноголосый закадровый) - A.Гаврилов
Перевод №6: Авторский (одноголосый закадровый) - Ю.Живов
Оригинальная аудиодорожка: English
Cубтитры: Russian (Видеосервис + Супербит), English, Portuguese, French, Greek, Hungarian (*.srt)
Навигация по главам: Присутствует-Режиссер: Клод Зиди / Claude Zidi
В ролях: Джек Николсон, Хелен Хант, Грег Киннер, Кьюба Гудинг мл., Скит Ульрих, Ширли Найт, Ярдли Смит, Люпе Онтиверос, собака Джилл, собака Таймер-Описание: Мелвин Адал, психически неуравновешенный эксцентричный писатель, ненавидит буквально всех вокруг. Из-за своего странного поведения он одинок и часто попадает в комичные ситуации. Но неожиданно его уединение нарушается.
Мелвину приходится ухаживать за соседской собакой, и незаметно для себя он учится у нее доброте и преданности. За стеной собственного равнодушия ему открывается прекрасный мир человеческих чувств…-imdb.com: 7.80 (186 294)
kinopoisk.ru: 8.004 (24 046)
Download sample-Качество видео: BDRip 1080p
Формат видео: MKV-Видео: AVC, 1920x1040 (16:9), 23.976 fps, 15.0 Mbps (0.313 bit/pixel)
Аудио №1: 48 kHz, AC3, 3/2 (L,C,R,l,r) + LFE ch, ~448.00 kbps avg | Профессиональный (полное дублирование)
Аудио №2: 48 kHz, DTS, 3/2 (L,C,R,l,r) + LFE ch, ~1536 kbps avg | Профессиональный (многоголосый закадровый) - Супербит
Аудио №3: 48 kHz, AC3, 2/0 (L,R) ch, ~192 kbps avg | Профессиональный (многоголосый закадровый) - Первый канал
Аудио №4: 48 kHz, AC3, 2/0 (L,R) ch, ~192.00 kbps avg | Профессиональный (многоголосый закадровый) - Видеосервис
Аудио №5: 48 kHz, DTS, 3/2 (L,C,R,l,r) + LFE ch, ~1536 kbps avg | Авторский (одноголосый закадровый) - A.Гаврилов
Аудио №6: 48 kHz, DTS, 3/2 (L,C,R,l,r) + LFE ch, ~1536 kbps avg | Авторский (одноголосый закадровый) - Ю.Живов
Аудио №7: 48 kHz, AC3, 2/0 (L,R) ch, ~192 kbps avg | Профессиональный (двухголосый закадровый) - Ukrainian - Так Треба Продакшн
Аудио №8: 48 kHz, DTS, 3/2 (L,C,R,l,r) + LFE ch, ~1536 kbps avg | English-

Дополнительно

Сохранены оригинальные чаптеры как на Blu-ray.
Синхронизация дорожек 1,3,4,7 и субтитров спасибо Diablo.
За Укр. дорогу спасибо ka81 и TNU.
Спасибо pyha за работу над дорожками 2,5,6,8.
Дорожки №2,5,6 получены наложением чистых и выделенных голосов на центр декодированного DTS-HD MA.
Рип от DON

MediaInfo

General
Unique ID : 231247650882010275420109510324113583989 (0xADF8AD7347BDF339B0F3BF581FF72F75)
Complete name : D:\Фильмы\As.Good.As.It.Gets.1997.1080p.BluRay.6xRus.Ukr.Eng.HDCLUB.mkv
Format : Matroska
Format version : Version 2
File size : 21.1 GiB
Duration : 2h 18mn
Overall bit rate : 21.8 Mbps
Movie name : As Good As It Gets (1997) - Release for HDCLUB
Encoded date : UTC 2013-11-22 18:53:41
Writing application : mkvmerge v5.7.0 ('The Whirlwind') built on Jul 8 2012 20:08:51
Writing library : libebml v1.2.3 + libmatroska v1.3.0
Video
ID : 1
Format : AVC
Format/Info : Advanced Video Codec
Format profile : High@L4.1
Format settings, CABAC : Yes
Format settings, ReFrames : 4 frames
Codec ID : V_MPEG4/ISO/AVC
Duration : 2h 18mn
Bit rate : 15.0 Mbps
Width : 1 920 pixels
Height : 1 040 pixels
Display aspect ratio : 1.85:1
Frame rate mode : Constant
Frame rate : 23.976 fps
Color space : YUV
Chroma subsampling : 4:2:0
Bit depth : 8 bits
Scan type : Progressive
Bits/(Pixel*Frame) : 0.313
Stream size : 14.1 GiB (67%)
Writing library : x264 core 116 r2057 0ba8a9c
Encoding settings : cabac=1 / ref=4 / deblock=1:-3:-3 / analyse=0x3:0x133 / me=umh / subme=10 / psy=1 / psy_rd=1.00:0.00 / mixed_ref=1 / me_range=32 / chroma_me=1 / trellis=2 / 8x8dct=1 / cqm=0 / deadzone=21,11 / fast_pskip=0 / chroma_qp_offset=-2 / threads=14 / sliced_threads=0 / nr=0 / decimate=0 / interlaced=0 / bluray_compat=0 / constrained_intra=0 / bframes=7 / b_pyramid=2 / b_adapt=2 / b_bias=0 / direct=3 / weightb=1 / open_gop=0 / weightp=2 / keyint=250 / keyint_min=23 / scenecut=40 / intra_refresh=0 / rc_lookahead=40 / rc=2pass / mbtree=0 / bitrate=15000 / ratetol=1.0 / qcomp=0.65 / qpmin=0 / qpmax=40 / qpstep=4 / cplxblur=20.0 / qblur=0.5 / vbv_maxrate=50000 / vbv_bufsize=50000 / nal_hrd=none / ip_ratio=1.25 / pb_ratio=1.25 / aq=1:0.65
Language : English
Default : Yes
Forced : No
Audio #1
ID : 2
Format : AC-3
Format/Info : Audio Coding 3
Mode extension : CM (complete main)
Format settings, Endianness : Big
Codec ID : A_AC3
Duration : 2h 18mn
Bit rate mode : Constant
Bit rate : 192 Kbps
Channel count : 2 channels
Channel positions : Front: L R
Sampling rate : 48.0 KHz
Bit depth : 16 bits
Compression mode : Lossy
Stream size : 190 MiB (1%)
Title : AC3 2.0 192 kbps @ - Дубляж
Language : Russian
Default : Yes
Forced : No
Audio #2
ID : 3
Format : DTS
Format/Info : Digital Theater Systems
Mode : 16
Format settings, Endianness : Big
Codec ID : A_DTS
Duration : 2h 18mn
Bit rate mode : Constant
Bit rate : 1 509 Kbps
Channel count : 6 channels
Channel positions : Front: L C R, Side: L R, LFE
Sampling rate : 48.0 KHz
Bit depth : 16 bits
Compression mode : Lossy
Stream size : 1.46 GiB (7%)
Title : DTS 5.1 1536 kbps @ - Многоголосый закадровый Супербит
Language : Russian
Default : No
Forced : No
Audio #3
ID : 4
Format : AC-3
Format/Info : Audio Coding 3
Mode extension : CM (complete main)
Format settings, Endianness : Big
Codec ID : A_AC3
Duration : 2h 18mn
Bit rate mode : Constant
Bit rate : 192 Kbps
Channel count : 2 channels
Channel positions : Front: L R
Sampling rate : 48.0 KHz
Bit depth : 16 bits
Compression mode : Lossy
Stream size : 190 MiB (1%)
Title : AC3 2.0 192 kbps @ - Многоголосый закадровый Первый канал
Language : Russian
Default : No
Forced : No
Audio #4
ID : 5
Format : AC-3
Format/Info : Audio Coding 3
Mode extension : CM (complete main)
Format settings, Endianness : Big
Codec ID : A_AC3
Duration : 2h 18mn
Bit rate mode : Constant
Bit rate : 192 Kbps
Channel count : 2 channels
Channel positions : Front: L R
Sampling rate : 48.0 KHz
Bit depth : 16 bits
Compression mode : Lossy
Stream size : 190 MiB (1%)
Title : AC3 2.0 192 kbps @ - Многоголосый закадровый Видеосервис
Language : Russian
Default : No
Forced : No
Audio #5
ID : 6
Format : DTS
Format/Info : Digital Theater Systems
Mode : 16
Format settings, Endianness : Big
Codec ID : A_DTS
Duration : 2h 18mn
Bit rate mode : Constant
Bit rate : 1 509 Kbps
Channel count : 6 channels
Channel positions : Front: L C R, Side: L R, LFE
Sampling rate : 48.0 KHz
Bit depth : 16 bits
Compression mode : Lossy
Stream size : 1.46 GiB (7%)
Title : DTS 5.1 1536 kbps @ - Одноголосый закадровый A.Гаврилов
Language : Russian
Default : No
Forced : No
Audio #6
ID : 7
Format : DTS
Format/Info : Digital Theater Systems
Mode : 16
Format settings, Endianness : Big
Codec ID : A_DTS
Duration : 2h 18mn
Bit rate mode : Constant
Bit rate : 1 509 Kbps
Channel count : 6 channels
Channel positions : Front: L C R, Side: L R, LFE
Sampling rate : 48.0 KHz
Bit depth : 16 bits
Compression mode : Lossy
Stream size : 1.46 GiB (7%)
Title : DTS 5.1 1536 kbps @ - Одноголосый закадровый Ю.Живов
Language : Russian
Default : No
Forced : No
Audio #7
ID : 8
Format : AC-3
Format/Info : Audio Coding 3
Mode extension : CM (complete main)
Format settings, Endianness : Big
Codec ID : A_AC3
Duration : 2h 18mn
Bit rate mode : Constant
Bit rate : 192 Kbps
Channel count : 2 channels
Channel positions : Front: L R
Sampling rate : 48.0 KHz
Bit depth : 16 bits
Compression mode : Lossy
Stream size : 190 MiB (1%)
Title : AC3 2.0 192 kbps @ - Двухголосый закадровый Так Треба Продакшн
Language : Ukrainian
Default : No
Forced : No
Audio #8
ID : 9
Format : DTS
Format/Info : Digital Theater Systems
Mode : 16
Format settings, Endianness : Big
Codec ID : A_DTS
Duration : 2h 18mn
Bit rate mode : Constant
Bit rate : 1 509 Kbps
Channel count : 6 channels
Channel positions : Front: L C R, Side: L R, LFE
Sampling rate : 48.0 KHz
Bit depth : 24 bits
Compression mode : Lossy
Stream size : 1.46 GiB (7%)
Title : DTS 5.1 1536 kbps
Language : English
Default : No
Forced : No
Text #1
ID : 10
Format : UTF-8
Codec ID : S_TEXT/UTF8
Codec ID/Info : UTF-8 Plain Text
Title : Супербит
Language : Russian
Default : No
Forced : No
Text #2
ID : 11
Format : UTF-8
Codec ID : S_TEXT/UTF8
Codec ID/Info : UTF-8 Plain Text
Title : Видеосервис
Language : Russian
Default : No
Forced : No
Text #3
ID : 12
Format : UTF-8
Codec ID : S_TEXT/UTF8
Codec ID/Info : UTF-8 Plain Text
Language : English
Default : No
Forced : No
Text #4
ID : 13
Format : UTF-8
Codec ID : S_TEXT/UTF8
Codec ID/Info : UTF-8 Plain Text
Language : Portuguese
Default : No
Forced : No
Text #5
ID : 14
Format : UTF-8
Codec ID : S_TEXT/UTF8
Codec ID/Info : UTF-8 Plain Text
Language : French
Default : No
Forced : No
Text #6
ID : 15
Format : UTF-8
Codec ID : S_TEXT/UTF8
Codec ID/Info : UTF-8 Plain Text
Language : Greek
Default : No
Forced : No
Text #7
ID : 16
Format : UTF-8
Codec ID : S_TEXT/UTF8
Codec ID/Info : UTF-8 Plain Text
Language : Hungarian
Default : No
Forced : No
Menu #1
00:00:00.000 : :00:00:00.000
00:10:08.775 : :00:10:08.775
00:21:14.690 : :00:21:14.690
00:32:46.548 : :00:32:46.548
00:42:08.985 : :00:42:08.985
00:50:11.967 : :00:50:11.967
01:02:33.333 : :01:02:33.333
01:20:22.526 : :01:20:22.526
01:30:08.778 : :01:30:08.778
01:44:23.048 : :01:44:23.048
01:55:40.225 : :01:55:40.225
02:13:52.816 : :02:13:52.816
Menu #2
00:00:00.097 : en:00:00:00.097

Скриншоты

Скачать

Скачать торрент!

Как скачивать? · Что такое торрент? · Рейтинг и ограничения

Сайт не распространяет и не хранит электронные версии произведений, а лишь предоставляет доступ к создаваемому пользователями каталогу ссылок на торрент-файлы, которые содержат только списки хеш-сумм

[Профиль] [ЛС]
Показать сообщения:    
Ответить на тему

Текущее время: Сегодня 12:54

Часовой пояс: GMT + 4



Вы не можете начинать темы
Вы не можете отвечать на сообщения
Вы не можете редактировать свои сообщения
Вы не можете удалять свои сообщения
Вы не можете голосовать в опросах
Вы не можете прикреплять файлы к сообщениям
Вы не можете скачивать файлы