Дорога, дорога домой / На заднем сиденье / The Way Way Back (Нат Факсон / Nat Faxon, Джим Рэш / Jim Rash) [2013, США, комедия, драма, BDRip 720p] DVO (OzzTV) + MVO (Paradox) + VO (Andi) + Sub (Rus, Eng) + Original (Eng)

Ответить на тему
 
Автор Сообщение

user ®

Стаж: 7 лет 7 месяцев

Сообщений: 20008

Пост Пост: #1 от 18-Фев-2014 23:10

[Цитировать]

Дорога, дорога домой / На заднем сиденье / The Way Way Back Страна: США
Студия: Sycamore Pictures, Walsh Company, OddLot Entertainment
Жанр: комедия, драма
Год выпуска: 2013
Продолжительность: 01:43:28
Перевод 1: Профессиональный (двухголосый закадровый) OzzTV (И. Воронова, А. Серёгин)
Перевод 2: Любительский (многоголосый закадровый) Paradox (И. Грачева, А. Шухарт, М. Максимов)
Перевод 3: Одноголосый закадровый
Cубтитры: русские 1 (El Brujo), русские 2 (Notabenoid - исправленные), английские (SDH)
Оригинальная аудиодорожка: английский
Режиссер: Нат Факсон / Nat Faxon, Джим Рэш / Jim Rash
В ролях: Стив Карелл, Тони Коллетт, Сэм Рокуэлл, Эллисон Дженни, Аманда Пит, Анна-София Робб, Майя Рудольф, Лиам Джеймс, Роб Кордри, Ривер Агирр, Зои Левин, Нат Факсон, Джим Рэш и др.
Описание: Данкан - замкнутый подросток с разведенными родителями. Вместо летних каникул с отцом, он вынужден провести их с матерью и ее новым мужчиной в доме на побережье. И тут можно ненавидеть весь мир, а можно, например, разглядеть в этом мраке симпатичную соседку, эксцентричного и жизнерадостного работника близлежащего аквапарка, новых интересных людей вокруг, и самому открыться себе с новой стороны. И тогда, может быть, поездка на заднем сидении жизни начнет видеться уже не такой безысходной.
IMDB: 7.5/10
Сэмпл: Скачать
Тип релиза: BDRip 720p (EbP)
Контейнер: MKV
Исходник: The Way Way Back 2013 1080p ITA Blu-ray AVC DTS-HD MA 5.1-CtrlHD
Видео: MPEG-4 AVC / 1280x694 / 9185 kbps / 23.976 fps / 1.85:1 / High Profile 4.1
Аудио 1: Русский, AC3 / 5.1 / 48 kHz / 640 kbps / DN -4dB (OzzTV)
Аудио 2: Русский, AC3 / 5.1 / 48 kHz / 384 kbps / DN -4dB (Paradox)
Аудио 3: Русский, AC3 / 5.1 / 48 kHz / 384 kbps / DN -4dB (Andi)
Аудио 4: Английский, AC3 / 5.1 / 48 kHz / 640 kbps (Original)
Формат субтитров: подключаемые (SRT)
Навигация по главам: есть

MediaInfo

General
Unique ID : 229783063524177539126050275063041075338 (0xACDE9BB7F030726BBE80DF7258B7A88A)
Complete name : D:\The.Way.Way.Back.2013.720p.Bluray.3xRus.Eng.x264-EbP.mkv
Format : Matroska
Format version : Version 2
File size : 8.26 GiB
Duration : 1h 43mn
Overall bit rate : 11.4 Mbps
Movie name : The Way Way Back (2013)
Encoded date : UTC 2014-02-17 13:49:09
Writing application : mkvmerge v5.8.0 ('No Sleep / Pillow') built on Sep 2 2012 15:37:04
Writing library : libebml v1.2.3 + libmatroska v1.3.0
Video
ID : 1
Format : AVC
Format/Info : Advanced Video Codec
Format profile : High@L4.1
Format settings, CABAC : Yes
Format settings, ReFrames : 9 frames
Codec ID : V_MPEG4/ISO/AVC
Duration : 1h 43mn
Bit rate : 9 154 Kbps
Width : 1 280 pixels
Height : 694 pixels
Display aspect ratio : 1.85:1
Frame rate mode : Constant
Frame rate : 23.976 fps
Color space : YUV
Chroma subsampling : 4:2:0
Bit depth : 8 bits
Scan type : Progressive
Bits/(Pixel*Frame) : 0.430
Stream size : 6.62 GiB (80%)
Title : EbP
Writing library : x264 core 130 r2273 b3065e6
Encoding settings : cabac=1 / ref=9 / deblock=1:-3:-3 / analyse=0x3:0x133 / me=tesa / subme=10 / psy=1 / psy_rd=1.05:0.00 / mixed_ref=1 / me_range=16 / chroma_me=1 / trellis=2 / 8x8dct=1 / cqm=0 / deadzone=21,11 / fast_pskip=0 / chroma_qp_offset=-2 / threads=12 / lookahead_threads=2 / sliced_threads=0 / nr=0 / decimate=0 / interlaced=0 / bluray_compat=0 / constrained_intra=0 / bframes=8 / b_pyramid=2 / b_adapt=2 / b_bias=0 / direct=3 / weightb=1 / open_gop=0 / weightp=2 / keyint=250 / keyint_min=23 / scenecut=40 / intra_refresh=0 / rc_lookahead=60 / rc=crf / mbtree=0 / crf=16.5 / qcomp=0.60 / qpmin=0 / qpmax=69 / qpstep=4 / vbv_maxrate=50000 / vbv_bufsize=62500 / crf_max=0.0 / nal_hrd=none / ip_ratio=1.10 / pb_ratio=1.10 / aq=1:0.70
Language : English
Default : Yes
Forced : No
Matrix coefficients : BT.709
Audio #1
ID : 2
Format : AC-3
Format/Info : Audio Coding 3
Mode extension : CM (complete main)
Format settings, Endianness : Big
Codec ID : A_AC3
Duration : 1h 43mn
Bit rate mode : Constant
Bit rate : 640 Kbps
Channel(s) : 6 channels
Channel positions : Front: L C R, Side: L R, LFE
Sampling rate : 48.0 KHz
Bit depth : 16 bits
Compression mode : Lossy
Stream size : 474 MiB (6%)
Title : DVO OzzTV
Language : Russian
Default : Yes
Forced : No
Audio #2
ID : 3
Format : AC-3
Format/Info : Audio Coding 3
Mode extension : CM (complete main)
Format settings, Endianness : Big
Codec ID : A_AC3
Duration : 1h 43mn
Bit rate mode : Constant
Bit rate : 384 Kbps
Channel(s) : 6 channels
Channel positions : Front: L C R, Side: L R, LFE
Sampling rate : 48.0 KHz
Bit depth : 16 bits
Compression mode : Lossy
Stream size : 284 MiB (3%)
Title : MVO Paradox
Language : Russian
Default : No
Forced : No
Audio #3
ID : 4
Format : AC-3
Format/Info : Audio Coding 3
Mode extension : CM (complete main)
Format settings, Endianness : Big
Codec ID : A_AC3
Duration : 1h 43mn
Bit rate mode : Constant
Bit rate : 384 Kbps
Channel(s) : 6 channels
Channel positions : Front: L C R, Side: L R, LFE
Sampling rate : 48.0 KHz
Bit depth : 16 bits
Compression mode : Lossy
Stream size : 284 MiB (3%)
Title : VO Andi
Language : Russian
Default : No
Forced : No
Audio #4
ID : 5
Format : AC-3
Format/Info : Audio Coding 3
Mode extension : CM (complete main)
Format settings, Endianness : Big
Codec ID : A_AC3
Duration : 1h 43mn
Bit rate mode : Constant
Bit rate : 640 Kbps
Channel(s) : 6 channels
Channel positions : Front: L C R, Side: L R, LFE
Sampling rate : 48.0 KHz
Bit depth : 16 bits
Compression mode : Lossy
Stream size : 474 MiB (6%)
Title : Original
Language : English
Default : No
Forced : No
Text #1
ID : 6
Format : UTF-8
Codec ID : S_TEXT/UTF8
Codec ID/Info : UTF-8 Plain Text
Title : El Brujo
Language : Russian
Default : No
Forced : No
Text #2
ID : 7
Format : UTF-8
Codec ID : S_TEXT/UTF8
Codec ID/Info : UTF-8 Plain Text
Title : Notabenoid
Language : Russian
Default : No
Forced : No
Text #3
ID : 8
Format : UTF-8
Codec ID : S_TEXT/UTF8
Codec ID/Info : UTF-8 Plain Text
Title : SDH
Language : English
Default : No
Forced : No
Menu
00:00:00.000 : en:00:00:00.000
00:03:38.218 : en:00:03:38.218
00:04:50.207 : en:00:04:50.207
00:09:56.471 : en:00:09:56.471
00:12:51.521 : en:00:12:51.521
00:15:47.363 : en:00:15:47.363
00:17:52.697 : en:00:17:52.697
00:20:10.960 : en:00:20:10.960
00:23:56.644 : en:00:23:56.644
00:27:51.837 : en:00:27:51.837
00:31:14.498 : en:00:31:14.498
00:34:02.082 : en:00:34:02.082
00:36:06.998 : en:00:36:06.998
00:38:39.400 : en:00:38:39.400
00:40:35.308 : en:00:40:35.308
00:43:44.330 : en:00:43:44.330
00:47:57.291 : en:00:47:57.291
00:49:34.847 : en:00:49:34.847
00:55:34.748 : en:00:55:34.748
00:59:23.143 : en:00:59:23.143
01:03:05.490 : en:01:03:05.490
01:07:39.681 : en:01:07:39.681
01:10:52.415 : en:01:10:52.415
01:13:41.709 : en:01:13:41.709
01:16:07.188 : en:01:16:07.188
01:21:03.067 : en:01:21:03.067
01:24:38.657 : en:01:24:38.657
01:27:52.642 : en:01:27:52.642
01:29:35.453 : en:01:29:35.453
01:31:55.427 : en:01:31:55.427
01:33:58.383 : en:01:33:58.383
01:35:03.323 : en:01:35:03.323

Скриншоты / Source - Encode - Scene




Дополнительно

  • Перевод и озвучивание студией OzzTV осуществлены в рамках сервиса "Озвучивание" на HDClub. Спонсоры: Goblin, hdrmv12, Кириллка, fall_out_boy, xeniya_amber, amplified, Kain_Rasiel
  • В русских субтитрах от El Brujo поправлена пунктуация.
Скачать

Скачать торрент!

Как скачивать? · Что такое торрент? · Рейтинг и ограничения

Сайт не распространяет и не хранит электронные версии произведений, а лишь предоставляет доступ к создаваемому пользователями каталогу ссылок на торрент-файлы, которые содержат только списки хеш-сумм

[Профиль] [ЛС]
Показать сообщения:    
Ответить на тему

Текущее время: Сегодня 16:23

Часовой пояс: GMT + 4



Вы не можете начинать темы
Вы не можете отвечать на сообщения
Вы не можете редактировать свои сообщения
Вы не можете удалять свои сообщения
Вы не можете голосовать в опросах
Вы не можете прикреплять файлы к сообщениям
Вы не можете скачивать файлы