Быстрее, чем кролики (Дмитрий Дьяченко) [2013, Комедия, пародия, DVDRip]

Ответить на тему
 
Автор Сообщение

user ®

Стаж: 7 лет 7 месяцев

Сообщений: 20008

Пост Пост: #1 от 18-Фев-2014 23:10

[Цитировать]

Быстрее, чем кролики
Жанр: Комедия, пародия
Год выпуска: 2013
Продолжительность: 01:31:54
Режиссёр: Дмитрий Дьяченко
В ролях: Леонид Барац, Александр Демидов, Камиль Ларин, Ростислав Хаит, Игорь Золотовицкий, Екатерина Кузнецова, Артём Смола, Григорий Данцигер, Дмитрий Дибров, Валдис Пельш
Описание: Трое друзей после бурной вечеринки просыпаются в совершенно незнакомом месте в компании незнакомых людей и пытаются понять, как они здесь оказались, кто все эти люди, и что на самом деле произошло накануне… Что делают и о чём говорят мужчины в такой необычной ситуации?

Качество видео: DVDRip (Исходник: DVD-5)
Формат видео: AVI
Видео: XviD, 720x304 (2.35:1), 1823 Кбит/с, 25 кадр/с
Аудио: Русский, Dolby AC3, 448 Кбит/с, 6 каналов (5.1)

Автор рипа - ivandubskoj

MediaInfo

Общее
Полное имя : Bystree.chem.kroliki.2013.DVDRip.avi
Формат : AVI
Формат/Информация : Audio Video Interleave
Размер файла : 1,46 Гбайт
Продолжительность : 1 ч. 31 м.
Общий поток : 2279 Кбит/сек
Название фильма : Быстрее, чем кролики (2013) DVDRip
Жанр : Комедия, пародия
Дата записи : 18.02.2014
Программа кодирования : VirtualDubMod 1.5.10.3 (build 2550/release)
Библиотека кодирования : VirtualDubMod build 2550/release
Правообладатель : rip by ivandubskoj
Видео
Идентификатор : 0
Формат : MPEG-4 Visual
Профиль формата : Advanced Simple@L5
Параметр BVOP формата : 1
Параметр QPel формата : Нет
Параметр GMC формата : Без точки перехода
Параметр матрицы формата : Default (MPEG)
Идентификатор кодека : XVID
Идентификатор кодека/Подсказка : XviD
Продолжительность : 1 ч. 31 м.
Битрейт : 1823 Кбит/сек
Ширина : 720 пикселей
Высота : 304 пикселя
Соотношение сторон : 2,35:1
Частота кадров : 25,000 кадров/сек
Цветовое пространство : YUV
Субдискретизация насыщенности : 4:2:0
Битовая глубина : 8 бит
Тип развёртки : Прогрессивная
Метод сжатия : С потерями
Бит/(Пиксели*Кадры) : 0.333
Размер потока : 1,17 Гбайт (80%)
Библиотека кодирования : XviD 73
Аудио
Идентификатор : 1
Формат : AC-3
Формат/Информация : Audio Coding 3
Расширение режима : CM (complete main)
Параметр Endianness формата : Big
Идентификатор кодека : 2000
Продолжительность : 1 ч. 31 м.
Вид битрейта : Постоянный
Битрейт : 448 Кбит/сек
Каналы : 6 каналов
Расположение каналов : Front: L C R, Side: L R, LFE
Частота : 48,0 КГц
Битовая глубина : 16 бит
Метод сжатия : С потерями
Размер потока : 295 Мбайт (20%)
Выравнивание : Разделение по промежуткам
Продолжительность промежутка : 64 мс. (1,60 видеокадра)
Время предзагрузки промежутка : 500 мс.
Заголовок : Russian

Скриншот c названием фильма

Скриншоты

Скачать

Скачать торрент!

Как скачивать? · Что такое торрент? · Рейтинг и ограничения

Сайт не распространяет и не хранит электронные версии произведений, а лишь предоставляет доступ к создаваемому пользователями каталогу ссылок на торрент-файлы, которые содержат только списки хеш-сумм

[Профиль] [ЛС]
Показать сообщения:    
Ответить на тему

Текущее время: Сегодня 10:00

Часовой пояс: GMT + 4



Вы не можете начинать темы
Вы не можете отвечать на сообщения
Вы не можете редактировать свои сообщения
Вы не можете удалять свои сообщения
Вы не можете голосовать в опросах
Вы не можете прикреплять файлы к сообщениям
Вы не можете скачивать файлы