Шов / Stitch (Аджай / Ajay) [2014, США, триллер, WEB-DL 720p] MVO (НТВ) + Original Eng

Ответить на тему
 
Автор Сообщение

user ®

Стаж: 7 лет 7 месяцев

Сообщений: 20008

Пост Пост: #1 от 18-Фев-2014 01:30

[Цитировать]

Шов / Stitch- Страна: США, Thunderbolt Entertainment, Wolf Pack Film Works
Жанр: триллер
Год выпуска: 2014
Продолжительность: 01:34:50-Перевод: Профессиональный (многоголосый закадровый) НТВ +
Cубтитры: нет
Оригинальная аудиодорожка: английский
Режиссер: Аджай / Ajay-В ролях: Эдвард Ферлонг, Шона Уолрод, Дайан Салинджер, Лоуренс Мэйсон, Ширли Бренер, Дуглас Тейт, Тиффани Мартин-Описание: История о скорбящих родителях Марсдене и Серафине, которые пытаются пережить смерть своей маленькой дочери. На пике отчаяния они обращаются к своим друзьям за советом. Их друзья, действуя из лучших побуждений, вывозят их далеко в пустыню, чтобы там они, пройдя некий ритуал, смогли избавиться от своих переживаний. Но все пошло наперекосяк…-IMDB | КиноПоиск | Sample-Качество видео: WEB-DL 720p
Формат видео: MKV-Видео: H264, 1280x720 (16:9), 23.976 fps, 4132 Кбит/с
Аудио: AC3, 48.0 KHz, 2ch, 192 Кбит/с
Аудио 2: AC3, 48.0 KHz, 6ch, 384 Кбит/с

MediaInfo

C:\Other\Shov.2014.P.720p.WEB-DL.H264.mkv
General
Unique ID : 236277399073972152740323134425406937540 (0xB1C15F2EAB0C758EBC9EEA21812499C4)
Complete name : C:\Other\Shov.2014.P.720p.WEB-DL.H264.mkv
Format : Matroska
Format version : Version 4 / Version 2
File size : 3.18 GiB
Duration : 1h 34mn
Overall bit rate : 4 800 Kbps
Encoded date : UTC 2014-02-11 20:54:30
Writing application : mkvmerge v6.1.0 ('Old Devil') built on Mar 4 2013 09:10:42
Writing library : libebml v1.3.0 + libmatroska v1.4.0
Video #1
ID : 1
Format : AVC
Format/Info : Advanced Video Codec
Format profile : High@L3.1
Format settings, CABAC : No
Format settings, ReFrames : 2 frames
Codec ID : V_MPEG4/ISO/AVC
Duration : 1h 34mn
Bit rate : 4 128 Kbps
Width : 1 280 pixels
Height : 720 pixels
Display aspect ratio : 16:9
Frame rate : 23.976 fps
Color space : YUV
Chroma subsampling : 4:2:0
Bit depth : 8 bits
Scan type : Progressive
Bits/(Pixel*Frame) : 0.187
Stream size : 2.73 GiB (86%)
Language : English
Color primaries : BT.709-5, BT.1361, IEC 61966-2-4, SMPTE RP177
Transfer characteristics : BT.709-5, BT.1361
Matrix coefficients : BT.709-5, BT.1361, IEC 61966-2-4 709, SMPTE RP177
Audio #2
ID : 2
Format : AC-3
Format/Info : Audio Coding 3
Mode extension : CM (complete main)
Codec ID : A_AC3
Duration : 1h 34mn
Bit rate mode : Constant
Bit rate : 192 Kbps
Channel(s) : 2 channels
Channel positions : Front: L R
Sampling rate : 48.0 KHz
Bit depth : 16 bits
Compression mode : Lossy
Stream size : 130 MiB (4%)
Language : Russian
Audio #3
ID : 3
Format : AC-3
Format/Info : Audio Coding 3
Mode extension : CM (complete main)
Codec ID : A_AC3
Duration : 1h 34mn
Bit rate mode : Constant
Bit rate : 384 Kbps
Channel(s) : 6 channels
Channel positions : Front: L C R, Side: L R, LFE
Sampling rate : 48.0 KHz
Bit depth : 16 bits
Compression mode : Lossy
Stream size : 260 MiB (8%)
Language : English
Text #4
ID : 4
Format : UTF-8
Codec ID : S_TEXT/UTF8
Codec ID/Info : UTF-8 Plain Text
Language : English

Скриншот c названием фильма

Скриншоты

Скачать

Скачать торрент!

Как скачивать? · Что такое торрент? · Рейтинг и ограничения

Сайт не распространяет и не хранит электронные версии произведений, а лишь предоставляет доступ к создаваемому пользователями каталогу ссылок на торрент-файлы, которые содержат только списки хеш-сумм

[Профиль] [ЛС]
Показать сообщения:    
Ответить на тему

Текущее время: Сегодня 11:56

Часовой пояс: GMT + 4



Вы не можете начинать темы
Вы не можете отвечать на сообщения
Вы не можете редактировать свои сообщения
Вы не можете удалять свои сообщения
Вы не можете голосовать в опросах
Вы не можете прикреплять файлы к сообщениям
Вы не можете скачивать файлы