В ночи / Into the Night (Джон Лэндис / John Landis) [1985, США, драма, комедия, триллер, HDTV 1080i] MVO

Ответить на тему
 
Автор Сообщение

user ®

Стаж: 7 лет 7 месяцев

Сообщений: 20008

Пост Пост: #1 от 18-Фев-2014 01:30

[Цитировать]

В ночи / Into the Night
Страна: США
Жанр: драма, комедия, триллер
Год выпуска: 1985
Продолжительность: 01:48:07
Перевод: Профессиональный (многоголосый закадровый)
Cубтитры: нет
Оригинальная аудиодорожка: нет
Режиссер: Джон Лэндис / John Landis
В ролях: Джефф Голдблюм, Мишель Пфайффер, Ирен Папас, Кэтрин Харролд, Дэвид Боуи, Дэн Эйкройд, Стэйси Пикрен, Кармен Аргенциано, Сью Дуган, Роберт Пэйнтер, Джон Хостеттер, Дик Балдуцци, Джон Лэндис, Хоуп Кларк, Эрик Ли, Джэйк Стейнфелд
Описание: Страдающий от бессонницы, измученный неудачами на работе и изменами жены, Эд Окин едет ночью в аэропорт, сам не зная зачем. Здесь к нему в машину прыгает очаровательная девушка Диана, спасающаяся от преследования вооруженной группы мужчин. Диана вовлекает своего случайного спутника в целую серию опасных приключений, не раз ставящих под угрозу их жизни.
Сэмпл: http://multi-up.com/951397
Тип релиза: HDTV 1080i
Контейнер: TS
Видео: AVC, 1920x1080 (16/9), 25.000 fps, 11.0 Mbps (0.211 bit/pixel)
Аудио: MP2, 48.0 KHz, 2 ch, 192 Kbps, CBR (Russian)

MediaInfo

Общее
Идентификатор : 3 (0x3)
Полное имя : K:\МОИ РАЗДАЧИ\В ночи.TS
Формат : MPEG-TS
Размер файла : 9,04 Гбайт
Продолжительность : 1 ч. 48 м.
Режим общего битрейта : Переменный
Общий поток : 12,0 Мбит/сек
Видео
Идентификатор : 2141 (0x85D)
Идентификатор меню : 21004 (0x520C)
Формат : AVC
Формат/Информация : Advanced Video Codec
Профиль формата : Main@L4.0
Параметр CABAC формата : Да
Параметр ReFrames формата : 3 кадра
Идентификатор кодека : 27
Продолжительность : 1 ч. 48 м.
Битрейт : 11,2 Мбит/сек
Ширина : 1920 пикселей
Высота : 1080 пикселей
Соотношение сторон : 16:9
Частота кадров : 25,000 кадров/сек
Стандарт вещания : Component
Цветовое пространство : YUV
Субдискретизация насыщенности : 4:2:0
Битовая глубина : 8 бит
Тип развёртки : Чересстрочная
Порядок развёртки : Верхнее поле первое
Бит/(Пиксели*Кадры) : 0.216
Размер потока : 8,45 Гбайт (93%)
Основные цвета : BT.709
Характеристики трансфера : BT.709
Коэффициенты матрицы : BT.709
Аудио
Идентификатор : 2142 (0x85E)
Идентификатор меню : 21004 (0x520C)
Формат : MPEG Audio
Версия формата : Version 1
Профиль формата : Layer 2
Идентификатор кодека : 4
Продолжительность : 1 ч. 48 м.
Вид битрейта : Постоянный
Битрейт : 192 Кбит/сек
Каналы : 2 канала
Частота : 48,0 КГц
Метод сжатия : С потерями
Задержка видео : 95 мс.
Размер потока : 148 Мбайт (2%)
Язык : Russian

Скриншоты


Скачать

Скачать торрент!

Как скачивать? · Что такое торрент? · Рейтинг и ограничения

Сайт не распространяет и не хранит электронные версии произведений, а лишь предоставляет доступ к создаваемому пользователями каталогу ссылок на торрент-файлы, которые содержат только списки хеш-сумм

[Профиль] [ЛС]
Показать сообщения:    
Ответить на тему

Текущее время: Сегодня 16:27

Часовой пояс: GMT + 4



Вы не можете начинать темы
Вы не можете отвечать на сообщения
Вы не можете редактировать свои сообщения
Вы не можете удалять свои сообщения
Вы не можете голосовать в опросах
Вы не можете прикреплять файлы к сообщениям
Вы не можете скачивать файлы