Дубля не будет (Петр Амелин) [2011, Криминал, детектив, SATRip]

Ответить на тему
 
Автор Сообщение

user ®

Стаж: 7 лет 7 месяцев

Сообщений: 20008

Пост Пост: #1 от 18-Фев-2014 01:30

[Цитировать]

Дубля не будет
Жанр: Криминал, детектив
Год выпуска: 2011
Продолжительность: 1:29:32
Режиссёр: Петр Амелин
В ролях: Алексей Нилов, Константин Соловьёв, Светлана Бакулина, Семён Фурман, Алексей Осипов (II), Ярослав Иванов, Пётр Семак, Аркадий Коваль, Михаил Сидаш, Владимир Лесун, Павел Харизанов, Игорь Добряков, Алена Кононова, Юлия Горшенина, Павел Ефимов, Станислав Корниенко
Описание: Игорь Жданов — популярный актер. Вот уже много лет он играет одну и ту же роль — ловкого сыщика в популярном сериале. Его герою все удается, он защищает униженных и спасает обреченных. Однажды, возвращаясь со съемок в родной Петербург, Игорь оказывается в купе со странным попутчиком — Савичевым. Тот явно чем-то напуган. Игорь, поставив на стол бутылку водки, предлагает Савичеву избавится от страха традиционным способом.
В купе заходит еще одна пассажирка — молодая девушка Лена. Уже изрядно подвыпивший Жданов пытается познакомиться с ней поближе, но девушка пресекает его неуклюжую попытку и уходит из купе. Вскоре Игоря покидает и Савичев.
Жданов отправляется на поиски Лены и обнаруживает ее в вагоне-ресторане. Лена оживленно беседует с Савичевым. По-своему расценив причину их знакомства, Игорь пытается снова поговорить с Леной. Та просит оставить их с Савичевым наедине. Однако Игорь настойчив и Савичев, понимая, что пьяный артист не даст им спокойно пообщаться, уходит. Лена пытается пойти за ним, но Игорь ее удерживает. Разговор с Леной не складывается и вскоре она тоже покидает артиста. Игорь же затевает в ресторане драку с двумя мужиками, которые хотят взять автограф у «звезды». Подоспевший наряд милиции разнимает драчунов и Жданов уходит в свое купе. Он уже настолько пьян, что без памяти валится на свою полку и мгновенно засыпает. Утром Игоря будит наряд милиции. Картина, представившаяся взору артиста, ужасна: его вчерашний попутчик убит…
Сэмпл: http://multi-up.com/952101
Качество видео: SATRip
Формат видео: AVI
Видео: XviD , 720x400 (1.80:1),25 fps , 2004 kbps avg
Аудио: AC3 , 48 kHz , 192.00 kbps avg , 2/0 (L,R) ch

MediaInfo

General
Complete name : D:\Дубля не будет 2011.avi
Format : AVI
Format/Info : Audio Video Interleave
File size : 1.38 GiB
Duration : 1h 29mn
Overall bit rate : 2 206 Kbps
Writing application : VirtualDubMod 1.5.4.1 (build 2178/release)
Writing library : VirtualDub build 35390/release
Video
ID : 0
Format : MPEG-4 Visual
Format profile : Advanced Simple@L5
Format settings, BVOP : No
Format settings, QPel : No
Format settings, GMC : No warppoints
Format settings, Matrix : Custom
Codec ID : XVID
Codec ID/Hint : XviD
Duration : 1h 29mn
Bit rate : 2 005 Kbps
Width : 720 pixels
Height : 400 pixels
Display aspect ratio : 16:9
Frame rate : 25.000 fps
Color space : YUV
Chroma subsampling : 4:2:0
Bit depth : 8 bits
Scan type : Progressive
Compression mode : Lossy
Bits/(Pixel*Frame) : 0.278
Stream size : 1.25 GiB (91%)
Writing library : XviD 1.2.1 (UTC 2008-12-04)
Audio
ID : 1
Format : AC-3
Format/Info : Audio Coding 3
Mode extension : CM (complete main)
Format settings, Endianness : Big
Codec ID : 2000
Duration : 1h 29mn
Bit rate mode : Constant
Bit rate : 192 Kbps
Channel(s) : 2 channels
Channel positions : Front: L R
Sampling rate : 48.0 KHz
Bit depth : 16 bits
Compression mode : Lossy
Stream size : 123 MiB (9%)
Alignment : Aligned on interleaves
Interleave, duration : 40 ms (1.00 video frame)
Interleave, preload duration : 512 ms

Скриншоты

Скачать

Скачать торрент!

Как скачивать? · Что такое торрент? · Рейтинг и ограничения

Сайт не распространяет и не хранит электронные версии произведений, а лишь предоставляет доступ к создаваемому пользователями каталогу ссылок на торрент-файлы, которые содержат только списки хеш-сумм

[Профиль] [ЛС]
Показать сообщения:    
Ответить на тему

Текущее время: Сегодня 14:13

Часовой пояс: GMT + 4



Вы не можете начинать темы
Вы не можете отвечать на сообщения
Вы не можете редактировать свои сообщения
Вы не можете удалять свои сообщения
Вы не можете голосовать в опросах
Вы не можете прикреплять файлы к сообщениям
Вы не можете скачивать файлы