Ёлки 3 (Ольга Харина, Дмитрий Киселёв, Александр Котт) [2013, Семейный, Комедия, BDRip-AVC]

Ответить на тему
 
Автор Сообщение

user ®

Стаж: 7 лет 7 месяцев

Сообщений: 20008

Пост Пост: #1 от 17-Фев-2014 18:50

[Цитировать]

Ёлки 3«Вместе теплее»- Жанр: Семейный, Комедия
Год выпуска: 2013
Продолжительность: 01:36:50-Режиссер: Ольга Харина, Дмитрий Киселёв, Александр Котт
В ролях: Иван Ургант, Гоша Куценко, Валентин Гафт, Сергей Светлаков, Татьяна Догилева, Пётр Фёдоров, Анна Чиповская, Мария Шукшина, Константин Хабенский, Антон Богданов и др-Описание: Спустя два года они снова с нами: любимые герои «Ёлок» в самых невероятных новогодних историях. Боря и Женя, чьи годовалые дети в канун праздника доведут друзей до психушки. Маленькая девочка Настя, чьи родители разлучат ее влюбленных друг в друга собак. Лыжник и сноубордист в самой экстремальной в их жизни гонке — от военкома. И профессор из Екатеринбурга Андрей, чья любвеобильность вновь не доведет его до добра, а только до проруби в минус 30.
Под бой курантов этих и новых героев «Ёлок» объединит бумеранг добра. Завершая свой круг, он заслуженно вернётся к каждому, кто его однажды запустил — кому улыбками и объятиями любимых и друзей, кому — праздничным настроением и соответствующим градусу состоянием, а кому-то… телефоном в холодце!- -Релиз от -
Автор: AngelOfTrue-Качество видео: BDRip-AVC | Ёлки 3 (2013) Blu-ray 1080p AVC DTS-HD 5.1
Формат видео: MKV
Видео: 884 x 372; 24.000 fps; 1760 kbps; 0.223 bit/pixel
Аудио: AC3 Dolby Digital / 48 KHz / 384 kbps / 3/2 (L,C,R,l,r) + LFE ch

-

x264 log

[info]: 884x372p 1:1 @ 24/1 fps (cfr)
x264 [warning]: --psnr used with psy on: results will be invalid!
x264 [warning]: --tune psnr should be used if attempting to benchmark psnr!
x264 [info]: using SAR=1/1
x264 [info]: using cpu capabilities: MMX2 SSE2Fast SSSE3 SSE4.2 AVX AVX2 FMA3 LZCNT BMI2
x264 [info]: profile High, level 3.2
x264 [info]: frame I:1570 Avg QP:17.17 size: 48539 PSNR Mean Y:46.25 U:48.51 V:48.72 Avg:46.89 Global:46.13
x264 [info]: frame P:34191 Avg QP:20.64 size: 17098 PSNR Mean Y:44.13 U:46.88 V:47.12 Avg:44.86 Global:43.41
x264 [info]: frame B:103683 Avg QP:22.30 size: 5955 PSNR Mean Y:43.76 U:46.64 V:46.91 Avg:44.51 Global:43.38
x264 [info]: consecutive B-frames: 3.2% 3.4% 9.9% 39.4% 18.0% 17.4% 4.0% 1.8% 1.0% 0.6% 0.3% 0.4% 0.3% 0.1% 0.1% 0.1%
x264 [info]: mb I I16..4: 4.4% 65.9% 29.7%
x264 [info]: mb P I16..4: 1.4% 13.1% 4.0% P16..4: 30.2% 31.3% 12.1% 2.5% 0.4% skip: 5.0%
x264 [info]: mb B I16..4: 0.3% 2.1% 0.7% B16..8: 31.8% 20.4% 3.7% direct: 6.1% skip:34.9% L0:39.5% L1:42.3% BI:18.1%
x264 [info]: 8x8 transform intra:69.1% inter:61.3%
x264 [info]: direct mvs spatial:98.0% temporal:2.0%
x264 [info]: coded y,uvDC,uvAC intra: 78.7% 83.3% 56.4% inter: 24.0% 24.4% 10.9%
x264 [info]: i16 v,h,dc,p: 20% 17% 4% 59%
x264 [info]: i8 v,h,dc,ddl,ddr,vr,hd,vl,hu: 14% 10% 6% 8% 12% 12% 12% 12% 13%
x264 [info]: i4 v,h,dc,ddl,ddr,vr,hd,vl,hu: 30% 13% 6% 6% 10% 10% 9% 8% 9%
x264 [info]: i8c dc,h,v,p: 30% 27% 24% 19%
x264 [info]: Weighted P-Frames: Y:7.3% UV:4.9%
x264 [info]: ref P L0: 51.3% 11.4% 14.4% 6.5% 4.4% 3.3% 2.5% 1.5% 1.2% 1.0% 0.8% 0.7% 0.5% 0.5% 0.1% 0.0%
x264 [info]: ref B L0: 76.2% 11.0% 5.0% 2.4% 1.6% 1.2% 0.9% 0.5% 0.4% 0.3% 0.3% 0.2% 0.1%
x264 [info]: ref B L1: 93.5% 6.5%
x264 [info]: SSIM Mean Y:0.9856580 (18.434db)
x264 [info]: PSNR Mean Y:43.878 U:46.721 V:46.984 Avg:44.621 Global:43.411 kb/s:1760.00

-

MediaInfo

Формат : Matroska
Версия формата : Version 4 / Version 2
Размер файла : 1,45 Гбайт
Продолжительность : 1 ч. 36 м.
Общий поток : 2146 Кбит/сек
Дата кодирования : UTC 2014-02-03 10:58:04
Программа кодирования : mkvmerge v6.1.0 ('Old Devil') built on Mar 4 2013 09:10:42
Библиотека кодирования : libebml v1.3.0 + libmatroska v1.4.0
Видео
Идентификатор : 1
Формат : AVC
Формат/Информация : Advanced Video Codec
Профиль формата : High@L3.2
Параметр CABAC формата : Да
Параметр ReFrames формата : 14 кадров
Идентификатор кодека : V_MPEG4/ISO/AVC
Продолжительность : 1 ч. 36 м.
Битрейт : 1760 Кбит/сек
Ширина : 884 пикселя
Высота : 372 пикселя
Соотношение сторон : 2,40:1
Режим частоты кадров : Постоянный
Частота кадров : 24,000 кадра/сек
Цветовое пространство : YUV
Субдискретизация насыщенности : 4:2:0
Битовая глубина : 8 бит
Тип развёртки : Прогрессивная
Бит/(Пиксели*Кадры) : 0.223
Размер потока : 1,16 Гбайт (80%)
Заголовок : Yolki.3.2013.RUS.BDRip-AVC.AC3.-HQ-ViDEO
Библиотека кодирования : x264 core 140 r2377kMod 1ca7bb9
Настройки программы : cabac=1 / ref=14 / deblock=1:-2:-1 / analyse=0x3:0x133 / me=umh / subme=11 / psy=1 / fade_compensate=0.00 / psy_rd=1.00:0.00 / mixed_ref=1 / me_range=32 / chroma_me=1 / trellis=2 / 8x8dct=1 / cqm=0 / deadzone=21,11 / fast_pskip=0 / chroma_qp_offset=-2 / threads=6 / lookahead_threads=1 / sliced_threads=0 / nr=0 / decimate=0 / interlaced=0 / bluray_compat=0 / constrained_intra=0 / fgo=0 / bframes=15 / b_pyramid=2 / b_adapt=2 / b_bias=0 / direct=3 / weightb=1 / open_gop=0 / weightp=2 / keyint=240 / keyint_min=24 / scenecut=40 / intra_refresh=0 / rc_lookahead=60 / rc=2pass / mbtree=0 / bitrate=1760 / ratetol=1.0 / qcomp=0.65 / qpmin=0 / qpmax=69 / qpstep=4 / cplxblur=20.0 / qblur=0.5 / vbv_maxrate=20000 / vbv_bufsize=20000 / nal_hrd=none / filler=0 / ip_ratio=1.35 / pb_ratio=1.25 / aq=2:1.00
Язык : Russian
Default : Да
Forced : Нет
Основные цвета : BT.709
Характеристики трансфера : BT.709
Аудио
Идентификатор : 2
Формат : AC-3
Формат/Информация : Audio Coding 3
Расширение режима : CM (complete main)
Параметр Endianness формата : Big
Идентификатор кодека : A_AC3
Продолжительность : 1 ч. 36 м.
Вид битрейта : Постоянный
Битрейт : 384 Кбит/сек
Каналы : 6 каналов
Расположение каналов : Front: L C R, Side: L R, LFE
Частота : 48,0 КГц
Битовая глубина : 16 бит
Метод сжатия : С потерями
Размер потока : 266 Мбайт (18%)
Заголовок : Original (Russian)
Язык : Russian
Default : Да
Forced : Нет

-

Скриншоты


Скачать

Скачать торрент!

Как скачивать? · Что такое торрент? · Рейтинг и ограничения

Сайт не распространяет и не хранит электронные версии произведений, а лишь предоставляет доступ к создаваемому пользователями каталогу ссылок на торрент-файлы, которые содержат только списки хеш-сумм

[Профиль] [ЛС]
Показать сообщения:    
Ответить на тему

Текущее время: Сегодня 13:40

Часовой пояс: GMT + 4



Вы не можете начинать темы
Вы не можете отвечать на сообщения
Вы не можете редактировать свои сообщения
Вы не можете удалять свои сообщения
Вы не можете голосовать в опросах
Вы не можете прикреплять файлы к сообщениям
Вы не можете скачивать файлы