Судья (Виктор Конисевич) [2014, остросюжетный, DVB]

Ответить на тему
 
Автор Сообщение

user ®

Стаж: 7 лет 7 месяцев

Сообщений: 20008

Пост Пост: #1 от 17-Фев-2014 15:40

[Цитировать]

Судья (4 серии)
Жанр: остросюжетный, криминальный
Год выпуска: 2014
Продолжительность: 02:53:16
Режиссёр: Виктор Конисевич
В ролях: Дмитрий Ульянов, Денис Карасёв, Юрий Беляев, Алексей Янин, Евгений Атарик, Людмила Селютина, Татьяна Лянник.
Описание: Много лет назад красавица Нина отвергла городского хулигана, не дававшего ей прохода. И вот, спустя столько времени, он решил взять реванш. За прошедшие годы Зюзя стал одним из самых влиятельных криминальных персонажей юга России. Чувствуя свою безнаказанность и безмерную власть, Зюзя всегда добивался того, что желал. Не простив Нине унижения, он поступил с нею в соответствии со своими понятиями…
Доп. информация: Запись потока *.ts со спутника ABS-1, ремукс в *.mpg программой VideoReDo.
Сэмпл: http://multi-up.com/951954
Качество видео: DVB
Формат видео: MPEG-PS
Видео: MPEG Video, 720(768)x576 (4:3), 25,000 кадров/сек, 5 124 Кбит/сек
Аудио: MPEG Audio, 48,0 КГц, 192 Кбит/сек, 2 канала

MediaInfo

General
Complete name : D:\MPG\СУДЬЯ (HTB).mpg
Format : MPEG-PS
File size : 6.80 GiB
Duration : 2h 53mn
Overall bit rate mode : Variable
Overall bit rate : 5 620 Kbps
Video
ID : 224 (0xE0)
Format : MPEG Video
Format version : Version 2
Format profile : Main@Main
Format settings, BVOP : Yes
Format settings, Matrix : Custom
Format settings, GOP : Variable
Duration : 2h 53mn
Bit rate mode : Variable
Bit rate : 5 124 Kbps
Maximum bit rate : 15.0 Mbps
Width : 720 pixels
Height : 576 pixels
Display aspect ratio : 4:3
Frame rate : 25.000 fps
Standard : PAL
Color space : YUV
Chroma subsampling : 4:2:0
Bit depth : 8 bits
Scan type : Interlaced
Scan order : Top Field First
Compression mode : Lossy
Bits/(Pixel*Frame) : 0.494
Time code of first frame : 00:00:00:00
Time code source : Group of pictures header
Stream size : 6.20 GiB (91%)
Audio #1
ID : 192 (0xC0)
Format : MPEG Audio
Format version : Version 1
Format profile : Layer 2
Duration : 2h 53mn
Bit rate mode : Constant
Bit rate : 192 Kbps
Channel count : 2 channels
Sampling rate : 48.0 KHz
Compression mode : Lossy
Delay relative to video : 20ms
Stream size : 238 MiB (3%)
Audio #2
ID : 193 (0xC1)
Format : MPEG Audio
Format version : Version 1
Format profile : Layer 2
Duration : 2h 53mn
Bit rate mode : Constant
Bit rate : 192 Kbps
Channel count : 2 channels
Sampling rate : 48.0 KHz
Compression mode : Lossy
Delay relative to video : 20ms
Stream size : 238 MiB (3%)

Скриншот c названием фильма

Скачать

Скачать торрент!

Как скачивать? · Что такое торрент? · Рейтинг и ограничения

Сайт не распространяет и не хранит электронные версии произведений, а лишь предоставляет доступ к создаваемому пользователями каталогу ссылок на торрент-файлы, которые содержат только списки хеш-сумм

[Профиль] [ЛС]
Показать сообщения:    
Ответить на тему

Текущее время: Сегодня 08:01

Часовой пояс: GMT + 4



Вы не можете начинать темы
Вы не можете отвечать на сообщения
Вы не можете редактировать свои сообщения
Вы не можете удалять свои сообщения
Вы не можете голосовать в опросах
Вы не можете прикреплять файлы к сообщениям
Вы не можете скачивать файлы