Красиво украсть / The art of the steal (Джонатан Собол / Jonathan Sobol) [2014, Канада, Криминал, WEB-DLRip] VO (qwerty) + Sub Eng + Original Eng

Ответить на тему
 
Автор Сообщение

user ®

Стаж: 7 лет 7 месяцев

Сообщений: 20008

Пост Пост: #1 от 17-Фев-2014 09:20

[Цитировать]

Красиво украсть / The art of the steal
Страна: Канада
Жанр: Криминал
Год выпуска: 2014
Продолжительность: 01:30:15
Перевод: Одноголосый закадровый (qwerty)
Cубтитры: английские
Оригинальная аудиодорожка: английская
Режиссер: Джонатан Собол / Jonathan Sobol
В ролях: Курт Рассел, Мэтт Диллон, Теренс Стэмп, Джей Барушель, Кэтрин Уинник, Крис Диамантополос, Кеннет Уэлш, Джейсон Джонс, Девон Бостик, Керин Двайер
Описание: Они были классной командой, воровавшей предметы искусства. Но когда перед её лидером, попавшимся случайно, встал выбор сесть самому или сдать брата. Он сдал брата. Брат отсидел, вышел и завязал. А они собираются на новое дело и им нужен он. Пойдет он или не пойдет с тем, кто его уже однажды предал ?
Качество видео: WEB-DLRip
Формат видео: AVI
Сэмпл http://sendfile.su/941356
Видео: Xvid; 720 х 576 (1,25:1); 1831 Кбит/сек; 23,976 кадра/сек; 0.112
Аудио: Русская дорожка, MPEG Layer 3; 44,1 КГц; 192 Кбит/сек; 2 канала
Аудио 2: Оригинальная английская дорожка, MPEG Layer 3; 44,1 КГц; 128 Кбит/сек; 2 канала
Формат субтитров: softsub (SRT)

MediaInfo

Формат : AVI
Формат/Информация : Audio Video Interleave
Размер файла : 1,36 Гбайт
Продолжительность : 1 ч. 30 м.
Общий поток : 2164 Кбит/сек
Программа кодирования : VirtualDubMod 1.5.10.2 (build 2540/release)
Библиотека кодирования : VirtualDubMod build 2540/release
Видео
Идентификатор : 0
Формат : xvid
Идентификатор кодека : xvid
Продолжительность : 1 ч. 30 м.
Битрейт : 1831 Кбит/сек
Ширина : 720 пикселей
Высота : 576 пикселей
Соотношение сторон : 1,25:1
Частота кадров : 23,976 кадра/сек
Бит/(Пиксели*Кадры) : 0.112
Размер потока : 1,15 Гбайт (85%)
Аудио #1
Идентификатор : 1
Формат : MPEG Audio
Версия формата : Version 1
Профиль формата : Layer 3
Режим : Joint stereo
Расширение режима : MS Stereo
Идентификатор кодека : 55
Идентификатор кодека/Подсказка : MP3
Продолжительность : 1 ч. 30 м.
Вид битрейта : Постоянный
Битрейт : 192 Кбит/сек
Каналы : 2 канала
Частота : 44,1 КГц
Метод сжатия : С потерями
Размер потока : 124 Мбайт (9%)
Выравнивание : Соединение по промежуткам
Продолжительность промежутка : 42 мс. (1,00 видеокадр)
Время предзагрузки промежутка : 522 мс.
Аудио #2
Идентификатор : 2
Формат : MPEG Audio
Версия формата : Version 1
Профиль формата : Layer 3
Режим : Joint stereo
Идентификатор кодека : 55
Идентификатор кодека/Подсказка : MP3
Продолжительность : 1 ч. 30 м.
Вид битрейта : Постоянный
Битрейт : 128 Кбит/сек
Каналы : 2 канала
Частота : 48,0 КГц
Метод сжатия : С потерями
Размер потока : 82,6 Мбайт (6%)
Выравнивание : Соединение по промежуткам
Продолжительность промежутка : 42 мс. (1,00 видеокадр)
Время предзагрузки промежутка : 504 мс.
Библиотека кодирования : LAME3.97

Скриншот c названием фильма

Скриншоты

Скачать

Скачать торрент!

Как скачивать? · Что такое торрент? · Рейтинг и ограничения

Сайт не распространяет и не хранит электронные версии произведений, а лишь предоставляет доступ к создаваемому пользователями каталогу ссылок на торрент-файлы, которые содержат только списки хеш-сумм

[Профиль] [ЛС]
Показать сообщения:    
Ответить на тему

Текущее время: Сегодня 12:25

Часовой пояс: GMT + 4



Вы не можете начинать темы
Вы не можете отвечать на сообщения
Вы не можете редактировать свои сообщения
Вы не можете удалять свои сообщения
Вы не можете голосовать в опросах
Вы не можете прикреплять файлы к сообщениям
Вы не можете скачивать файлы