Милая Фрэнсис / Frances Ha (Ноа Баумбах / Noah Baumbach) [2012, США, драма, комедия, BDRip 1080p] [Criterion #681] Dub (Мосфильм) + VO (datynet) + Sub Rus Eng + Original Eng

Ответить на тему
 
Автор Сообщение

user ®

Стаж: 7 лет 7 месяцев

Сообщений: 20008

Пост Пост: #1 от 16-Фев-2014 21:50

[Цитировать]

Милая Фрэнсис / Frances Ha- Страна: США
Студия: RT Features, Scott Rudin Productions
Жанр: драма, комедия
Год выпуска: 2012
Продолжительность: 01:26:04-Перевод 1: Профессиональный (дублированный) "Мосфильм"
Перевод 2: Любительский (одноголосый закадровый) datynet
Cубтитры: русские (Егор Тесля), английские
Оригинальная аудиодорожка: английский-Режиссер: Ноа Баумбах / Noah Baumbach
В ролях: Грета Гервиг, Мики Самнер, Майкл Эспер, Адам Драйвер, Майкл Зеген, Шарлотта д’Амбойз, Грэйс Гаммер, Дайва Дюпри, Изабель МакНалли, Джастин Люпе, Линдсэй Бердж, Патрик Хьюсингер-Описание: Фрэнсис живёт в Нью-Йорке, но у нее, по сути, нет дома. Фрэнсис работает в танцевальной труппе, но она, признаться, совсем не танцор. У Фрэнсис есть лучшая подруга Софи, но теперь они почти не общаются, если честно. Фрэнсис живет своими мечтами, которые с каждым днем становятся все более несбыточными. Фрэнсис хочет намного больше, чем может себе позволить, но она все равно проживает жизнь с легкостью, беспечностью и изяществом.-Сэмпл: http://www.sendspace.com/file/vkb171-Тип релиза: BDRip 1080p (WiKi)
Контейнер: MKV
Видео: MPEG-4 AVC / 16500 kbps / 1920 x 1040 / 23.976 fps / 1.85:1
Аудио 1: Russian / AC3 5.1 / 48 kHz / 448 kbps (Профессиональный дублированный, "Мосфильм")
Аудио 2: Russian / AC3 2.0 / 44.1 kHz / 192 kbps (Любительский одноголосый, datynet)
Аудио 3: English / DTS 5.1 / 48 kHz / 1509 kbps / 24 bit
Формат субтитров: softsub (SRT)
Навигация по главам: есть- -

MediaInfo

Общее
Уникальный идентификатор                 : 175221071809525149429088154411288083322 (0x83D259D524B10FFDBC3852887CE9BB7A)
Полное имя                               : D:\Criterion Collection\Frances Ha.2012.Criterion Collection.BD-Rip.1080p-WiKi.mkv
Формат                                   : Matroska
Версия формата                           : Version 4 / Version 2
Размер файла                             : 11,2 Гбайт
Продолжительность                        : 1 ч. 26 м.
Общий поток                              : 18,7 Мбит/сек
Дата кодирования                         : UTC 2014-02-16 10:03:22
Программа кодирования                    : mkvmerge v6.6.0 ('The Edge Of The In Between') built on Dec  1 2013 17:55:00
Библиотека кодирования                   : libebml v1.3.0 + libmatroska v1.4.1
Видео
Идентификатор                            : 1
Формат                                   : AVC
Формат/Информация                        : Advanced Video Codec
Профиль формата                          : High@L4.1
Параметр CABAC формата                   : Да
Параметр ReFrames формата                : 4 кадра
Идентификатор кодека                     : V_MPEG4/ISO/AVC
Продолжительность                        : 1 ч. 26 м.
Битрейт                                  : 16,5 Мбит/сек
Ширина                                   : 1920 пикселей
Высота                                   : 1040 пикселей
Соотношение сторон                       : 1,85:1
Режим частоты кадров                     : Постоянный
Частота кадров                           : 23,976 кадра/сек
Цветовое пространство                    : YUV
Субдискретизация насыщенности            : 4:2:0
Битовая глубина                          : 8 бит
Тип развёртки                            : Прогрессивная
Бит/(Пиксели*Кадры)                      : 0.345
Размер потока                            : 9,70 Гбайт (86%)
Заголовок                                : Frances Ha
Библиотека кодирования                   : x264 core 129 r2245+704+36 8e61944 tMod+MixAQ [8-bit@4:2:0 X86]
Настройки программы                      : cabac=1 / ref=4 / deblock=1:-3:-3 / analyse=0x3:0x133 / me=umh / subme=11 / psy=1 / fade_compensate=0.00 / psy_rd=1.00:0.10 / mixed_ref=1 / me_range=64 / chroma_me=0 / trellis=2 / 8x8dct=1 / cqm=0 / deadzone=21,11 / fast_pskip=0 / chroma_qp_offset=-3 / threads=12 / lookahead_threads=1 / sliced_threads=0 / nr=0 / decimate=0 / interlaced=0 / bluray_compat=0 / constrained_intra=0 / fgo=0 / bframes=10 / b_pyramid=2 / b_adapt=2 / b_bias=0 / direct=3 / weightb=1 / open_gop=0 / weightp=2 / keyint=600 / keyint_min=1 / scenecut=40 / intra_refresh=0 / rc_lookahead=80 / rc=2pass / mbtree=1 / bitrate=16500 / ratetol=1.0 / qcomp=0.75 / qpmin=0 / qpmax=69 / qpstep=4 / cplxblur=20.0 / qblur=0.5 / vbv_maxrate=50000 / vbv_bufsize=50000 / nal_hrd=none / ip_ratio=1.30 / aq=3 / aq-strength=0.70 / aq-sensitivity=10.00 / aq-ifactor=1.00 / aq-pfactor=1.00 / aq-bfactor=1.00 / aq2=0
Язык                                     : English
Default                                  : Да
Forced                                   : Нет
Аудио #1
Идентификатор                            : 2
Формат                                   : AC-3
Формат/Информация                        : Audio Coding 3
Расширение режима                        : CM (complete main)
Параметр Endianness формата              : Big
Идентификатор кодека                     : A_AC3
Продолжительность                        : 1 ч. 26 м.
Вид битрейта                             : Постоянный
Битрейт                                  : 448 Кбит/сек
Каналы                                   : 6 каналов
Расположение каналов                     : Front: L C R, Side: L R, LFE
Частота                                  : 48,0 КГц
Битовая глубина                          : 16 бит
Метод сжатия                             : С потерями
Размер потока                            : 276 Мбайт (2%)
Заголовок                                : Дубляж, "Мосфильм" [AC3 5.1 @ 448 kbps]
Язык                                     : Russian
Default                                  : Да
Forced                                   : Нет
Аудио #2
Идентификатор                            : 3
Формат                                   : AC-3
Формат/Информация                        : Audio Coding 3
Расширение режима                        : CM (complete main)
Параметр Endianness формата              : Big
Идентификатор кодека                     : A_AC3
Продолжительность                        : 1 ч. 26 м.
Вид битрейта                             : Постоянный
Битрейт                                  : 192 Кбит/сек
Каналы                                   : 2 канала
Расположение каналов                     : Front: L R
Частота                                  : 44,1 КГц
Битовая глубина                          : 16 бит
Метод сжатия                             : С потерями
Размер потока                            : 118 Мбайт (1%)
Заголовок                                : VO, datynet [AC3 2.0 @ 192 kbps]
Язык                                     : Russian
Default                                  : Нет
Forced                                   : Нет
Аудио #3
Идентификатор                            : 4
Формат                                   : DTS
Формат/Информация                        : Digital Theater Systems
Режим                                    : 16
Параметр Endianness формата              : Big
Идентификатор кодека                     : A_DTS
Продолжительность                        : 1 ч. 26 м.
Вид битрейта                             : Постоянный
Битрейт                                  : 1509 Кбит/сек
Каналы                                   : 6 каналов
Расположение каналов                     : Front: L C R, Side: L R, LFE
Частота                                  : 48,0 КГц
Битовая глубина                          : 24 бит
Метод сжатия                             : С потерями
Размер потока                            : 929 Мбайт (8%)
Заголовок                                : [DTS 5.1 @ 1509 kbps]
Язык                                     : English
Default                                  : Нет
Forced                                   : Нет
Текст #1
Идентификатор                            : 5
Формат                                   : UTF-8
Идентификатор кодека                     : S_TEXT/UTF8
Идентификатор кодека/Информация          : UTF-8 Plain Text
Заголовок                                : Егор Тесля
Язык                                     : Russian
Default                                  : Нет
Forced                                   : Нет
Текст #2
Идентификатор                            : 6
Формат                                   : UTF-8
Идентификатор кодека                     : S_TEXT/UTF8
Идентификатор кодека/Информация          : UTF-8 Plain Text
Язык                                     : English
Default                                  : Нет
Forced                                   : Нет
Меню
00:00:00.000                             : en:00:00:00.000
00:02:09.504                             : en:00:02:09.504
00:07:05.717                             : en:00:07:05.717
00:15:55.163                             : en:00:15:55.163
00:19:11.776                             : en:00:19:11.776
00:23:37.499                             : en:00:23:37.499
00:32:12.514                             : en:00:32:12.514
00:40:07.030                             : en:00:40:07.030
00:43:52.630                             : en:00:43:52.630
00:53:25.994                             : en:00:53:25.994
01:01:17.340                             : en:01:01:17.340
01:07:22.121                             : en:01:07:22.121
01:16:41.680                             : en:01:16:41.680

Скриншоты


-
Скачать

Скачать торрент!

Как скачивать? · Что такое торрент? · Рейтинг и ограничения

Сайт не распространяет и не хранит электронные версии произведений, а лишь предоставляет доступ к создаваемому пользователями каталогу ссылок на торрент-файлы, которые содержат только списки хеш-сумм

[Профиль] [ЛС]
Показать сообщения:    
Ответить на тему

Текущее время: Сегодня 02:07

Часовой пояс: GMT + 4



Вы не можете начинать темы
Вы не можете отвечать на сообщения
Вы не можете редактировать свои сообщения
Вы не можете удалять свои сообщения
Вы не можете голосовать в опросах
Вы не можете прикреплять файлы к сообщениям
Вы не можете скачивать файлы