Навахо Джо / Navajo Joe (Серджио Корбуччи / Sergio Corbucci) [1966, Италия, Испания, вестерн, BDRip 720p] Mvo (5-й канал СПб) + Original (Eng) + Sub (Eng)

Ответить на тему
 
Автор Сообщение

user ®

Стаж: 7 лет 7 месяцев

Сообщений: 20008

Пост Пост: #1 от 16-Фев-2014 21:50

[Цитировать]

Навахо Джо / Navajo Joe«Navajo revenge slashes ...burns ...ravages the screen!»- Страна: Италия, Испания
Жанр: вестерн
Год выпуска: 1966
Продолжительность: 01:32:25-Перевод: Профессиональный (многоголосый закаровый) - 5-й канал СПб
Оригинальная аудиодорожка: English
Cубтитры: English, Greek (*.srt)
Навигация по главам: Присутствует-Режиссер: Серджио Корбуччи / Sergio Corbucci
В ролях: Берт Рейнолдс, Альдо Самбрелл, Николетта Макиавелли, Фернандо Рей, Таня Лопер, Франка Полезелло, Люсия Модуньо, Пьер Крессуа, Roberto Paoletti, Марио Ланфранчи-Описание: Джо Навахо — единственный выживший в кровавой резне, устроенной в поселении бандой Дункана. В числе прочих жителей была и жена Джо. Он клянется отомстить за смерть любимой и вступает в схватку с Дунканом и его людьми.-imdb.com: 6.40 (1837)
kinopoisk.ru: 6.513 (131)
-Качество видео: BDRip 720p
Формат видео: MKV-Видео: AVC, 1280x548 (2.35:1), 23.976 fps, 7 500 Kbps (0.446 bit/pixel)
Аудио №1: 48 kHz, AC3, 2/0 (L,R) ch, ~192.00 kbps avg | Профессиональный (многоголосый закаровый) - 5-й канал СПб
Аудио №2: 48 kHz/16-bit, DTS, 2/0 (L,R) ch ~755.00 kbps avg | English-

Дополнительно

Сохранены оригинальные чаптеры как на Blu-ray.
За ремукс спасибо xamster
Рип от CRiSC

MediaInfo

General
Unique ID : 243998375657004489954712680935138147094 (0xB79060B7E450BAFEBCB773528F623B16)
Complete name : D:\Фильмы\Navajo.Joe.1966.720p.BluRay.Rus.Eng.HDCLUB.mkv
Format : Matroska
Format version : Version 2
File size : 5.46 GiB
Duration : 1h 32mn
Overall bit rate : 8 462 Kbps
Movie name : Navajo Joe (1966) - Release for HDCLUB
Encoded date : UTC 2013-11-24 14:10:07
Writing application : mkvmerge v5.7.0 ('The Whirlwind') built on Jul 8 2012 20:08:51
Writing library : libebml v1.2.3 + libmatroska v1.3.0
Video
ID : 1
Format : AVC
Format/Info : Advanced Video Codec
Format profile : High@L4.1
Format settings, CABAC : Yes
Format settings, ReFrames : 11 frames
Codec ID : V_MPEG4/ISO/AVC
Duration : 1h 32mn
Bit rate : 7 500 Kbps
Width : 1 280 pixels
Height : 548 pixels
Display aspect ratio : 2.35:1
Frame rate mode : Constant
Frame rate : 23.976 fps
Color space : YUV
Chroma subsampling : 4:2:0
Bit depth : 8 bits
Scan type : Progressive
Bits/(Pixel*Frame) : 0.446
Stream size : 4.73 GiB (87%)
Writing library : x264 core 128 r2216 198a7ea
Encoding settings : cabac=1 / ref=11 / deblock=1:-3:-3 / analyse=0x3:0x133 / me=umh / subme=11 / psy=1 / psy_rd=1.00:0.20 / mixed_ref=1 / me_range=64 / chroma_me=1 / trellis=2 / 8x8dct=1 / cqm=0 / deadzone=21,11 / fast_pskip=0 / chroma_qp_offset=-3 / threads=12 / lookahead_threads=2 / sliced_threads=0 / nr=0 / decimate=0 / interlaced=0 / bluray_compat=0 / constrained_intra=0 / bframes=13 / b_pyramid=2 / b_adapt=2 / b_bias=0 / direct=3 / weightb=1 / open_gop=0 / weightp=2 / keyint=250 / keyint_min=23 / scenecut=40 / intra_refresh=0 / rc_lookahead=40 / rc=2pass / mbtree=0 / bitrate=7500 / ratetol=1.0 / qcomp=0.60 / qpmin=0 / qpmax=69 / qpstep=4 / cplxblur=20.0 / qblur=0.5 / vbv_maxrate=50000 / vbv_bufsize=62500 / nal_hrd=none / ip_ratio=1.40 / pb_ratio=1.30 / aq=1:0.60
Language : English
Default : Yes
Forced : No
Color primaries : BT.709
Transfer characteristics : BT.709
Matrix coefficients : BT.709
Audio #1
ID : 2
Format : AC-3
Format/Info : Audio Coding 3
Mode extension : CM (complete main)
Format settings, Endianness : Big
Codec ID : A_AC3
Duration : 1h 32mn
Bit rate mode : Constant
Bit rate : 192 Kbps
Channel count : 2 channels
Channel positions : Front: L R
Sampling rate : 48.0 KHz
Bit depth : 16 bits
Compression mode : Lossy
Stream size : 127 MiB (2%)
Title : |Многоголосый закадровый, 5-й канал СПб|
Language : Russian
Default : Yes
Forced : No
Audio #2
ID : 3
Format : DTS
Format/Info : Digital Theater Systems
Mode : 16
Format settings, Endianness : Big
Codec ID : A_DTS
Duration : 1h 32mn
Bit rate mode : Constant
Bit rate : 768 Kbps
Channel count : 2 channels
Channel positions : Front: L R
Sampling rate : 48.0 KHz
Bit depth : 16 bits
Compression mode : Lossy
Stream size : 508 MiB (9%)
Language : English
Default : No
Forced : No
Text #1
ID : 4
Format : UTF-8
Codec ID : S_TEXT/UTF8
Codec ID/Info : UTF-8 Plain Text
Language : English
Default : No
Forced : No
Text #2
ID : 5
Format : UTF-8
Codec ID : S_TEXT/UTF8
Codec ID/Info : UTF-8 Plain Text
Language : Greek
Default : No
Forced : No
Menu
00:00:00.000 : en:00:00:00.000
00:04:07.456 : en:00:04:07.456
00:09:16.723 : en:00:09:16.723
00:15:55.788 : en:00:15:55.788
00:18:59.305 : en:00:18:59.305
00:25:28.944 : en:00:25:28.944
00:29:44.241 : en:00:29:44.241
00:34:03.625 : en:00:34:03.625
00:40:06.279 : en:00:40:06.279
00:46:24.240 : en:00:46:24.240
00:50:21.977 : en:00:50:21.977
00:58:08.151 : en:00:58:08.151
01:01:18.466 : en:01:01:18.466
01:10:56.878 : en:01:10:56.878
01:14:36.931 : en:01:14:36.931
01:19:29.473 : en:01:19:29.473

Скриншоты

Скачать

Скачать торрент!

Как скачивать? · Что такое торрент? · Рейтинг и ограничения

Сайт не распространяет и не хранит электронные версии произведений, а лишь предоставляет доступ к создаваемому пользователями каталогу ссылок на торрент-файлы, которые содержат только списки хеш-сумм

[Профиль] [ЛС]
Показать сообщения:    
Ответить на тему

Текущее время: Сегодня 09:52

Часовой пояс: GMT + 4



Вы не можете начинать темы
Вы не можете отвечать на сообщения
Вы не можете редактировать свои сообщения
Вы не можете удалять свои сообщения
Вы не можете голосовать в опросах
Вы не можете прикреплять файлы к сообщениям
Вы не можете скачивать файлы