Железный человек 3 / Iron Man 3 (Шейн Блэк / Shane Black) [2013, США, Китай, фантастика, боевик, комикс, BDRip 720p] Dub + Sub Rus, Eng + Original Eng

Ответить на тему
 
Автор Сообщение

user ®

Стаж: 7 лет 7 месяцев

Сообщений: 20008

Пост Пост: #1 от 16-Фев-2014 21:50

[Цитировать]

-Железный человек 3 / Iron Man 3-Страна: США, Китай
Студия: Fairview Entertainment, Marvel Studios Inc., Noble Media, Outlaw Sinema, Paramount Pictures
Жанр: фантастика, боевик, комикс
Год выпуска: 2013
Продолжительность: 02:10:33-Перевод: Профессиональный (дублированный)
Cубтитры: Russian (надписи и пр.), Russian (Blu-ray CEE), Ukrainian (надписи и пр.), Ukrainian (full), English, English (SDH)
Оригинальная аудиодорожка: английский-Режиссер: Шейн Блэк / Shane Black
В ролях: Роберт Дауни мл., Гвинет Пэлтроу, Дон Чидл, Гай Пирс, Бен Кингсли, Ребекка Холл, Пол Беттани, Джон Фавро, Уильям Сэдлер, Джеймс Бэдж Дэйл-Описание: Когда мир Старка рушится на его глазах по вине неизвестных противников, Тони жаждет найти виновных и свести с ними счеты. Оказавшись в безвыходной ситуации, Старк может рассчитывать только на себя и свою изобретательность, чтобы защитить тех, кто ему дорог. Это становится настоящим испытанием для героя, которому придется не только сражаться с коварным врагом, но и разобраться в себе, чтобы найти ответ на вопрос, который давно его тревожит: что важнее — человек или костюм?-Доп. информация:-Сэмпл: http://yadi.sk/d/92oH0h1j87VFm-Тип релиза: BDRip 720p
Контейнер: MKV
Видео: MPEG-4 AVC Video 4840 kbps 1280 x 534p / 23,976 fps / 2,4:1 / High Profile 4.1
Аудио 1: DTS Audio Russian 5.1 / 48 kHz / 1509 kbps / 24-bit |Дубляж, Disney / Buena Vista|
Аудио 2: DTS Audio English 5.1 / 48 kHz / 1509 kbps / 24-bit
Аудио 3: Dolby Digital Audio Ukrainian 2.0 / 48 kHz / 192 kbps |Дубляж, iTunes Russia|
Формат субтитров: softsub (SRT)

Видеоряд от HDWinG

Iron.Man.3.2013.720p.BluRay.x264.DTS-HDWinG
----------MEDiA iNFO------------
SOURCE TYPE.....: 1080p AVC BlurayViDEO BiTRATE...: x264 L4.1 High @ 4840 kbpsFRAME RATE......: 23.976 fpsRUNTime.........: 2:10:32.866 (h:m:s.ms)AUDiO...........: English DTS 5.1 @ 1509 kbpsRESOLUTiON......: 1280 x 534SUBTiTLE........: EnglishiMDB............: http://www.imdb.com/title/tt1300854/Ratings.........: 7.5/10 from 224,739 users
----------X264 iNFO------------
x264 [info]: frame I:1959 Avg QP:12.05 size: 92363x264 [info]: frame P:48079 Avg QP:13.27 size: 44794x264 [info]: frame B:137763 Avg QP:14.48 size: 17450x264 [info]: consecutive B-frames: 4.3% 5.2% 14.0% 23.9% 21.1% 21.5% 5.6% 2.5% 2.0%

MI

General
Complete name                    : X:\  -= Фильмы =-\Iron.Man.3.2013.720p.BluRay.Rus.Ukr.Eng.HDCLUB.mkv
Format                           : Matroska
File size                        : 7.34 GiB
Duration                         : 2h 10mn
Overall bit rate                 : 8 054 Kbps
Movie name                       : Release for RuTracker & HDClub
Encoded date                     : UTC 2013-08-20 13:20:21
Writing application              : mkvmerge v4.9.1 ('Ich will') сборка от Jul 11 2011 23:53:15
Writing library                  : libebml v1.2.1 + libmatroska v1.1.1
Video
ID                               : 1
Format                           : AVC
Format/Info                      : Advanced Video Codec
Format profile                   : High@L4.1
Format settings, CABAC           : Yes
Format settings, ReFrames        : 12 frames
Muxing mode                      : Container profile=Unknown@4.1
Codec ID                         : V_MPEG4/ISO/AVC
Duration                         : 2h 10mn
Bit rate                         : 4 682 Kbps
Width                            : 1 280 pixels
Height                           : 534 pixels
Display aspect ratio             : 2.35:1
Frame rate                       : 23.976 fps
Color space                      : YUV
Chroma subsampling               : 4:2:0
Bit depth                        : 8 bits
Scan type                        : Progressive
Bits/(Pixel*Frame)               : 0.286
Stream size                      : 4.27 GiB (58%)
Title                            : Iron.Man.3.2013.720p.BluRay.x264.DTS-HDWinG
Writing library                  : x264 core 132 r2323+704+51 d571b1c tMod [8-bit@4:2:0 X86_64]
Encoding settings                : cabac=1 / ref=12 / deblock=1:-3:-3 / analyse=0x3:0x113 / me=umh / subme=11 / psy=1 / fade_compensate=0.00 / psy_rd=1.00:0.00 / mixed_ref=1 / me_range=32 / chroma_me=1 / trellis=2 / 8x8dct=1 / cqm=0 / deadzone=21,11 / fast_pskip=0 / chroma_qp_offset=-2 / threads=36 / lookahead_threads=4 / sliced_threads=0 / nr=0 / decimate=0 / interlaced=0 / bluray_compat=0 / constrained_intra=0 / fgo=0 / bframes=8 / b_pyramid=2 / b_adapt=2 / b_bias=0 / direct=3 / weightb=1 / open_gop=0 / weightp=2 / keyint=240 / keyint_min=24 / scenecut=40 / intra_refresh=0 / rc=crf / mbtree=0 / crf=14.8000 / qcomp=0.70 / qpmin=0 / qpmax=69 / qpstep=4 / ip_ratio=1.20 / pb_ratio=1.20 / aq=4:0.85 / aq-sensitivity=10.00 / aq-factor=1.00:1.00:1.00 / aq2=0 / aq3=0
Language                         : English
Audio #1
ID                               : 2
Format                           : DTS
Format/Info                      : Digital Theater Systems
Codec ID                         : A_DTS
Duration                         : 2h 10mn
Bit rate mode                    : Constant
Bit rate                         : 1 510 Kbps
Channel(s)                       : 6 channels
Channel positions                : Front: L C R, Side: L R, LFE
Sampling rate                    : 48.0 KHz
Bit depth                        : 24 bits
Stream size                      : 1.38 GiB (19%)
Title                            : Дубляж [Disney / Buena Vista]
Language                         : Russian
Audio #2
ID                               : 3
Format                           : DTS
Format/Info                      : Digital Theater Systems
Codec ID                         : A_DTS
Duration                         : 2h 10mn
Bit rate mode                    : Constant
Bit rate                         : 1 510 Kbps
Channel(s)                       : 6 channels
Channel positions                : Front: L C R, Side: L R, LFE
Sampling rate                    : 48.0 KHz
Bit depth                        : 24 bits
Stream size                      : 1.38 GiB (19%)
Language                         : English
Audio #3
ID                               : 4
Format                           : AC-3
Format/Info                      : Audio Coding 3
Mode extension                   : CM (complete main)
Codec ID                         : A_AC3
Duration                         : 2h 10mn
Bit rate mode                    : Constant
Bit rate                         : 192 Kbps
Channel(s)                       : 2 channels
Channel positions                : Front: L R
Sampling rate                    : 48.0 KHz
Bit depth                        : 16 bits
Stream size                      : 179 MiB (2%)
Title                            : Дубляж [iTunes]
Language                         : Ukrainian
Text #1
ID                               : 5
Format                           : UTF-8
Codec ID                         : S_TEXT/UTF8
Codec ID/Info                    : UTF-8 Plain Text
Title                            : captions
Language                         : Russian
Text #2
ID                               : 6
Format                           : UTF-8
Codec ID                         : S_TEXT/UTF8
Codec ID/Info                    : UTF-8 Plain Text
Title                            : full
Language                         : Russian
Text #3
ID                               : 7
Format                           : UTF-8
Codec ID                         : S_TEXT/UTF8
Codec ID/Info                    : UTF-8 Plain Text
Title                            : commentary
Language                         : Russian
Text #4
ID                               : 8
Format                           : UTF-8
Codec ID                         : S_TEXT/UTF8
Codec ID/Info                    : UTF-8 Plain Text
Title                            : captions
Language                         : Ukrainian
Text #5
ID                               : 9
Format                           : UTF-8
Codec ID                         : S_TEXT/UTF8
Codec ID/Info                    : UTF-8 Plain Text
Title                            : full
Language                         : Ukrainian
Text #6
ID                               : 10
Format                           : UTF-8
Codec ID                         : S_TEXT/UTF8
Codec ID/Info                    : UTF-8 Plain Text
Language                         : English
Text #7
ID                               : 11
Format                           : UTF-8
Codec ID                         : S_TEXT/UTF8
Codec ID/Info                    : UTF-8 Plain Text
Title                            : SDH
Language                         : English
Menu
00:00:00.000                     : en:New Year's Eve, 1999
00:04:52.750                     : en:R60 Department
00:07:55.433                     : en:The Mandarin
00:12:12.440                     : en:Killian Returns
00:19:04.101                     : en:Tony & Pepper at Home
00:23:47.884                     : en:Happy Follows Savin
00:29:47.702                     : en:House Attack
00:39:46.384                     : en:Rose Hill, Tennessee
00:45:56.044                     : en:Unraveling the Past
00:59:19.639                     : en:The Mandarin Teaches a Lesson
01:01:56.921                     : en:Tony Hacks A.I.M.
01:09:24.451                     : en:Locating the Mandarin
01:18:41.508                     : en:Captured by Killian
01:23:52.944                     : en:Attack on Air Force One
01:37:55.995                     : en:Showdown at the Docks
01:56:18.304                     : en:New Beginnings
01:59:38.754                     : en:End Credits

Скриншоты


Зеркало 1


Зеркало 2




  • за дубляж в DTS и украинские сабы и дорожку спасибо .
  • Главы подписаны.
  • На BD и в iTunes сабы по тексту идентичные.
Скачать

Скачать торрент!

Как скачивать? · Что такое торрент? · Рейтинг и ограничения

Сайт не распространяет и не хранит электронные версии произведений, а лишь предоставляет доступ к создаваемому пользователями каталогу ссылок на торрент-файлы, которые содержат только списки хеш-сумм

[Профиль] [ЛС]
Показать сообщения:    
Ответить на тему

Текущее время: Сегодня 21:19

Часовой пояс: GMT + 4



Вы не можете начинать темы
Вы не можете отвечать на сообщения
Вы не можете редактировать свои сообщения
Вы не можете удалять свои сообщения
Вы не можете голосовать в опросах
Вы не можете прикреплять файлы к сообщениям
Вы не можете скачивать файлы