Киллеры / Killers (Роберт Лукетич / Robert Luketic) [2010, США, боевик, триллер, комедия, мелодрама, BDRip 1080p] Dub + Original Eng + Sub Eng

Ответить на тему
 
Автор Сообщение

user ®

Стаж: 7 лет 7 месяцев

Сообщений: 20008

Пост Пост: #1 от 16-Фев-2014 21:50

[Цитировать]

Киллеры / Killers- Страна: США
Жанр: боевик, триллер, комедия, мелодрама
Год выпуска: 2010
Продолжительность: 01:40:23
Перевод:
  • Профессиональный (дублированный) R5
  • Английская звуковая дорожка Origenal
-Режиссер: Роберт Лукетич / Robert Luketic
В ролях: Эштон Катчер, Кэтрин Хайгл, Том Селлек, Кэтрин О’Хара, Кэтрин Уинник, Кевин Суссман, Лиза Энн Уолтер, Кэйси Уилсон, Роб Риггл, Мартин Мулл.
Описание: Спенсер был безжалостным наемным убийцей, грозой мирового терроризма и перестал им быть, когда встретил Джен в лифте курортного отеля… Спустя три года они — обычная идеальная молодая пара, проживающая в американском пригороде. Но их безоблачному счастью приходит конец, когда за голову Спенсера объявляют награду в $20 млн, и все глубоко законспирированные профессионалы-киллеры начинают за ним охоту. Сумеют ли герои «угадать» убийц среди своих соседей, коллег, знакомых и друзей, чтобы уцелеть? Простит ли Джен мужа за «убийственную правду»? И кто «заказал» Спенсера?
-Тип релиза: BDRip 1080p | HDCLUB
Контейнер: MKV | Сэмпл
Видео: 1920x816 (2.35:1), 23.976 fps, x264@L4.1 ~ 9378 kbps avg
Аудио:
  • Russian 48 kHz, AC3, 3/2 (L,C,R,l,r) + LFE ch, 448.00 kbps avg (R5)
  • English 48 kHz, DTS, 3/2 (L,C,R,l,r) + LFE ch, 1509.00 kbps avg (Original)
Cубтитры: английские

Скриншоты

Медиаинфо

Общее
Формат : Matroska
Версия формата : Version 2
Размер файла : 7,95 Гбайт
Продолжительность : 1 ч. 40 м.
Общий поток : 11,3 Мбит/сек
Дата кодирования : UTC 2010-10-01 22:35:53
Программа кодирования : mkvmerge v3.4.0 ('Rapunzel') built on May 15 2010 09:38:20
Библиотека кодирования : libebml v0.8.0 + libmatroska v0.9.0
Видео
Идентификатор : 1
Формат : AVC
Формат/Информация : Advanced Video Codec
Профиль формата : High@L4.1
Параметр CABAC формата : Да
Параметр ReFrames формата : 5 кадров
Идентификатор кодека : V_MPEG4/ISO/AVC
Продолжительность : 1 ч. 40 м.
Битрейт : 9378 Кбит/сек
Ширина : 1920 пикселей
Высота : 816 пикселей
Соотношение сторон : 2,35:1
Режим частоты кадров : Постоянный
Частота кадров : 23,976 кадра/сек
Цветовое пространство : YUV
Субдискретизация насыщенности : 4:2:0
Битовая глубина : 8 бит
Тип развёртки : Прогрессивная
Бит/(Пиксели*Кадры) : 0.250
Размер потока : 6,42 Гбайт (81%)
Библиотека кодирования : x264 core 105 r1732 2b04482
Настройки программы : cabac=1 / ref=5 / deblock=1:-3:-3 / analyse=0x3:0x113 / me=umh / subme=10 / psy=1 / psy_rd=1.00:0.00 / mixed_ref=1 / me_range=32 / chroma_me=1 / trellis=2 / 8x8dct=1 / cqm=0 / deadzone=21,11 / fast_pskip=0 / chroma_qp_offset=-2 / threads=6 / sliced_threads=0 / nr=0 / decimate=0 / interlaced=0 / constrained_intra=0 / bframes=10 / b_pyramid=2 / b_adapt=2 / b_bias=0 / direct=3 / weightb=1 / open_gop=0 / weightp=2 / keyint=250 / keyint_min=23 / scenecut=40 / intra_refresh=0 / rc=2pass / mbtree=0 / bitrate=9378 / ratetol=1.0 / qcomp=0.60 / qpmin=10 / qpmax=51 / qpstep=4 / cplxblur=20.0 / qblur=0.5 / ip_ratio=1.40 / pb_ratio=1.30 / aq=1:0.55
Язык : English
Default : Да
Forced : Нет
Аудио #1
Идентификатор : 2
Формат : AC-3
Формат/Информация : Audio Coding 3
Расширение режима : CM (complete main)
Параметр Endianness формата : Big
Идентификатор кодека : A_AC3
Продолжительность : 1 ч. 40 м.
Вид битрейта : Постоянный
Битрейт : 448 Кбит/сек
Каналы : 6 каналов
Расположение каналов : Front: L C R, Side: L R, LFE
Частота : 48,0 КГц
Битовая глубина : 16 бит
Метод сжатия : С потерями
Размер потока : 322 Мбайт (4%)
Заголовок : Dublyazh AC3 5.1 448 kbps
Язык : Russian
Default : Да
Forced : Нет
Аудио #2
Идентификатор : 3
Формат : DTS
Формат/Информация : Digital Theater Systems
Режим : 16
Параметр Endianness формата : Big
Идентификатор кодека : A_DTS
Продолжительность : 1 ч. 40 м.
Вид битрейта : Постоянный
Битрейт : 1509 Кбит/сек
Каналы : 6 каналов
Расположение каналов : Front: L C R, Side: L R, LFE
Частота : 48,0 КГц
Битовая глубина : 24 бит
Метод сжатия : С потерями
Размер потока : 1,06 Гбайт (13%)
Заголовок : DTS 5.1 1536 kbps
Язык : English
Default : Нет
Forced : Нет
Текст #1
Идентификатор : 4
Формат : UTF-8
Идентификатор кодека : S_TEXT/UTF8
Идентификатор кодека/Информация : UTF-8 Plain Text
Язык : English
Default : Нет
Forced : Нет
Текст #2
Идентификатор : 5
Формат : UTF-8
Идентификатор кодека : S_TEXT/UTF8
Идентификатор кодека/Информация : UTF-8 Plain Text
Заголовок : SDH
Язык : English
Default : Нет
Forced : Нет
Меню
00:00:00.000 : en:Chapter 1
00:09:51.841 : en:Chapter 2
00:15:18.334 : en:Chapter 3
00:22:40.025 : en:Chapter 4
00:28:52.397 : en:Chapter 5
00:36:06.122 : en:Chapter 6
00:44:51.147 : en:Chapter 7
00:51:27.918 : en:Chapter 8
00:55:06.220 : en:Chapter 9
01:01:50.624 : en:Chapter 10
01:05:07.278 : en:Chapter 11
01:13:39.123 : en:Chapter 12
01:17:37.111 : en:Chapter 13
01:21:38.769 : en:Chapter 14
01:28:40.023 : en:Chapter 15
01:31:40.829 : en:Chapter 16
Скачать

Скачать торрент!

Как скачивать? · Что такое торрент? · Рейтинг и ограничения

Сайт не распространяет и не хранит электронные версии произведений, а лишь предоставляет доступ к создаваемому пользователями каталогу ссылок на торрент-файлы, которые содержат только списки хеш-сумм

[Профиль] [ЛС]
Показать сообщения:    
Ответить на тему

Текущее время: Сегодня 11:58

Часовой пояс: GMT + 4



Вы не можете начинать темы
Вы не можете отвечать на сообщения
Вы не можете редактировать свои сообщения
Вы не можете удалять свои сообщения
Вы не можете голосовать в опросах
Вы не можете прикреплять файлы к сообщениям
Вы не можете скачивать файлы