Война (Алексей Балабанов) [2002 г.в. Боевик, Драма, Военный, DVDRip-AVC] + Чадов (комментарии) + sub eng

Ответить на тему
 
Автор Сообщение

user ®

Стаж: 7 лет 7 месяцев

Сообщений: 20008

Пост Пост: #1 от 16-Фев-2014 21:50

[Цитировать]

-ВОЙНА Страна: Россия
Жанр: боевик, драма
Год выпуска: 2002
Продолжительность: 01:59:54-Оригинальная аудиодорожка: русский-Режиссер: Алексей Балабанов-В ролях-Алексей Чадов, Ингеборга Дапкунайте, Сергей Бодров-мл., Владимир Гостюхин, Иэн Келли, Георгий Гургулия-Описание-Аслан Гугаев, командир отряда чеченских боевиков, отпускает троих пленников. Двух русских солдат сержанта Ивана Ермакова и рядового Кулика — потому что они не контрактники, а призывники. И англичанина Джона Бойла — потому что он должен собрать два миллиона фунтов стерлингов и привезти деньги Гугаеву в качестве выкупа за свою невесту Маргарет. Маргарет остается у Аслана. Так же, как и капитан российской армии Медведев…
За отведенные ему два месяца Джон не находит нужную сумму и не находит поддержки у британских властей, зато, вернувшись в Россию, находит Ваню Ермакова, живущего в Тобольске. Джон и Ваня опять едут в Чечню. Чтобы освободить английскую девушку Маргарет и русского капитана Медведева…
-Качество видео: DVDRip
Исходное видео: DVD-9 |Амальгама|-Контейнер: MKV-Видео: AVC, 686x564@976x564 (1,730), ~2500 kbps, 25 fps,
Аудио: AC-3, 448 kbps, Dolby Digital, 3/2 (L,C,R,l,r) + LFE ch, 48 KHz |Original|
Аудио: AC-3, 448 kbps, Dolby Digital, 3/2 (L,C,R,l,r) + LFE ch, 48 KHz |Original + Чадов, комментарии|
Формат субтитров: softsub (SRT)-

MediaInfo

x264

...last pass...
avs4x264.exe: -L x264_64.exe --pass 2 --bitrate 2590 --preset veryslow --profile high --level 4.1 --aq-mode 2 --aq-strength 0.8 --deblock -2:-1 --merange 32 --bframes 12 --no-dct-decimate --psy-rd 1.00:0.01 --qcomp 0.65 --vbv-maxrate 50000 --vbv-bufsize 62500 --subme 11 --no-mbtree --sar 64:45 --stats "F:\Temp\0053.log" --output "F:\Temp\0053.264" "F:\Temp\0053.avs"
raw [info]: 686x564p 64:45 @ 25/1 fps (cfr)
x264 [info]: using SAR=64/45
x264 [info]: using cpu capabilities: MMX2 SSE2Fast LZCNT
x264 [info]: profile High, level 4.1
x264 [info]: frame I:927 Avg QP:16.60 size: 70931
x264 [info]: frame P:37535 Avg QP:19.22 size: 27479
x264 [info]: frame B:141399 Avg QP:21.34 size: 8711
x264 [info]: consecutive B-frames: 1.8% 2.1% 12.7% 4.5% 3.4% 74.0% 0.7% 0.3% 0.2% 0.1% 0.1% 0.1% 0.1%
x264 [info]: mb I I16..4: 3.2% 83.4% 13.4%
x264 [info]: mb P I16..4: 0.5% 12.3% 1.4% P16..4: 30.7% 32.3% 17.6% 2.0% 0.2% skip: 3.1%
x264 [info]: mb B I16..4: 0.1% 1.5% 0.3% B16..8: 35.2% 20.4% 3.7% direct: 8.9% skip:29.9% L0:31.7% L1:41.5% BI:26.7%
x264 [info]: 8x8 transform intra:85.3% inter:60.9%
x264 [info]: direct mvs spatial:98.6% temporal:1.4%
x264 [info]: coded y,uvDC,uvAC intra: 89.4% 85.2% 56.0% inter: 36.8% 25.4% 9.2%
x264 [info]: i16 v,h,dc,p: 46% 18% 8% 28%
x264 [info]: i8 v,h,dc,ddl,ddr,vr,hd,vl,hu: 13% 9% 10% 7% 11% 11% 10% 12% 15%
x264 [info]: i4 v,h,dc,ddl,ddr,vr,hd,vl,hu: 48% 6% 7% 4% 7% 7% 7% 6% 7%
x264 [info]: i8c dc,h,v,p: 32% 30% 22% 16%
x264 [info]: Weighted P-Frames: Y:5.8% UV:1.2%
x264 [info]: ref P L0: 39.4% 12.3% 18.0% 4.9% 5.3% 3.2% 3.7% 1.7% 2.1% 1.5% 1.8% 1.2% 1.5% 1.1% 1.4% 0.9%
x264 [info]: ref B L0: 78.1% 10.9% 3.0% 1.8% 1.2% 1.1% 0.8% 0.6% 0.5% 0.5% 0.4% 0.4% 0.4% 0.2% 0.1%
x264 [info]: ref B L1: 95.3% 4.7%
x264 [info]: kb/s:2589.68
Формат : Matroska
Версия формата : Version 2
Размер файла : 2,92 Гбайт
Продолжительность : 1 ч. 59 м.
Общий поток : 3488 Кбит/сек
Название фильма : ВОЙНА / WAR
Дата кодирования : UTC 2014-02-16 13:28:23
Программа кодирования : mkvmerge v5.5.0 ('Healer') built on Apr 24 2012 23:47:03
Библиотека кодирования : libebml v1.2.3 + libmatroska v1.3.0
Видео
Идентификатор : 1
Формат : AVC
Формат/Информация : Advanced Video Codec
Профиль формата : High@L4.1
Параметр CABAC формата : Да
Параметр ReFrames формата : 16 кадров
Идентификатор кодека : V_MPEG4/ISO/AVC
Продолжительность : 1 ч. 59 м.
Битрейт : 2590 Кбит/сек
Ширина : 686 пикселей
Высота : 564 пикселя
Соотношение сторон : 1,730
Частота кадров : 25,000 кадров/сек
Цветовое пространство : YUV
Субдискретизация насыщенности : 4:2:0
Битовая глубина : 8 бит
Тип развёртки : Прогрессивная
Бит/(Пиксели*Кадры) : 0.268
Размер потока : 2,11 Гбайт (72%)
Заголовок : Война_2002_ (Балабанов)
Библиотека кодирования : x264 core 142 r2389 956c8d8
Настройки программы : cabac=1 / ref=16 / deblock=1:-2:-1 / analyse=0x3:0x133 / me=umh / subme=11 / psy=1 / psy_rd=1.00:0.01 / mixed_ref=1 / me_range=32 / chroma_me=1 / trellis=2 / 8x8dct=1 / cqm=0 / deadzone=21,11 / fast_pskip=1 / chroma_qp_offset=-3 / threads=4 / lookahead_threads=1 / sliced_threads=0 / nr=0 / decimate=0 / interlaced=0 / bluray_compat=0 / constrained_intra=0 / bframes=12 / b_pyramid=2 / b_adapt=2 / b_bias=0 / direct=3 / weightb=1 / open_gop=0 / weightp=2 / keyint=250 / keyint_min=25 / scenecut=40 / intra_refresh=0 / rc_lookahead=60 / rc=2pass / mbtree=0 / bitrate=2590 / ratetol=1.0 / qcomp=0.65 / qpmin=0 / qpmax=69 / qpstep=4 / cplxblur=20.0 / qblur=0.5 / vbv_maxrate=50000 / vbv_bufsize=62500 / nal_hrd=none / filler=0 / ip_ratio=1.40 / pb_ratio=1.30 / aq=2:0.80
Язык : Russian
Default : Да
Forced : Нет
Аудио #1
Идентификатор : 2
Формат : AC-3
Формат/Информация : Audio Coding 3
Расширение режима : CM (complete main)
Параметр Endianness формата : Big
Идентификатор кодека : A_AC3
Продолжительность : 1 ч. 59 м.
Вид битрейта : Постоянный
Битрейт : 448 Кбит/сек
Каналы : 6 каналов
Расположение каналов : Front: L C R, Side: L R, LFE
Частота : 48,0 КГц
Битовая глубина : 16 бит
Метод сжатия : С потерями
Размер потока : 384 Мбайт (13%)
Язык : Russian
Default : Да
Forced : Нет
Аудио #2
Идентификатор : 3
Формат : AC-3
Формат/Информация : Audio Coding 3
Расширение режима : CM (complete main)
Параметр Endianness формата : Big
Идентификатор кодека : A_AC3
Продолжительность : 1 ч. 59 м.
Вид битрейта : Постоянный
Битрейт : 448 Кбит/сек
Каналы : 6 каналов
Расположение каналов : Front: L C R, Side: L R, LFE
Частота : 48,0 КГц
Битовая глубина : 16 бит
Метод сжатия : С потерями
Размер потока : 384 Мбайт (13%)
Заголовок : Чадов, комменты
Язык : Russian
Default : Нет
Forced : Нет
Текст
Идентификатор : 4
Формат : UTF-8
Идентификатор кодека : S_TEXT/UTF8
Идентификатор кодека/Информация : UTF-8 Plain Text
Язык : English
Default : Да
Forced : Нет

Скриншоты

Скачать

Скачать торрент!

Как скачивать? · Что такое торрент? · Рейтинг и ограничения

Сайт не распространяет и не хранит электронные версии произведений, а лишь предоставляет доступ к создаваемому пользователями каталогу ссылок на торрент-файлы, которые содержат только списки хеш-сумм

[Профиль] [ЛС]
Показать сообщения:    
Ответить на тему

Текущее время: Сегодня 17:29

Часовой пояс: GMT + 4



Вы не можете начинать темы
Вы не можете отвечать на сообщения
Вы не можете редактировать свои сообщения
Вы не можете удалять свои сообщения
Вы не можете голосовать в опросах
Вы не можете прикреплять файлы к сообщениям
Вы не можете скачивать файлы