Одинокий / Solo (Парасурам / Parasuram) [2011, Индия, Мелодрама, HDRip] MVO (Red Media)

Ответить на тему
 
Автор Сообщение

user ®

Стаж: 12 лет

Сообщений: 15092

Пост Пост: #1 от 16-Фев-2014 12:25

[Цитировать]

Одинокий / Solo
-Страна: Индия
Жанр: Мелодрама
Год выпуска: 2011
Продолжительность: 02:28:36-Перевод: Профессиональный (многоголосый закадровый) - Red Media [Индия ТВ]
Субтитры: Нет--Режиссер: Парасурам / Parasuram-В ролях: Нара Рохит, Ниша Агарвал, Пракаш Радж, Саяджи Шинде, Али, Шриниваса Редди, Рао Рамеш--Описание: Одинокий парень с самого детства желает обзавестись большой семьей. Для этого ему надо жениться на девушке из большой семьи. Всеми силами он старается достичь своей цели. Однажды в словесную перепалку на улице встревает девушка и улаживает возникшую ситуацию. С этого момента жизнь одинокого парня переворачивается. Он все свои силы отдает, чтобы влюбить в себя эту девушку. Но строго настроенный отец девушки и выбранный им жених становятся непреодолимыми препятствиями на пути к счастью. Бросить девушку или продолжать сражаться за нее?! Все решает честность, настойчивость и терпение.-Доп. информация: Фильм снят на языке телугу.-- | Трейлер--Качество видео: HDRip (исходник неизвестен)
Формат видео: AVI-Видео: XviD, 672x288, 24 fps, 1267 Kbps
Аудио: MP3, 48 KHz, 2ch, 128 Kbps--Сэмпл / Sample--Cведение звука: soso4eg-- --

Скриншот с названием:


-

Скриншоты:


-

MediaInfo:

Общее
Полное имя : D:\[Релизы]\Odinokiy.2011.HDRip.XviD-soso4eg.avi
Формат : AVI
Формат/Информация : Audio Video Interleave
Размер файла : 1,46 Гбайт
Продолжительность : 2 ч. 28 м.
Общий поток : 1405 Кбит/сек
Название фильма : Odinokiy.2011.HDRip.XviD-soso4eg
Режиссёр : soso4eg
Программа кодирования : VirtualDubMod 1.5.10.3 | www.virtualdub-fr.org || (build 2550/release)
Примечание : пер. Red Media
Видео
Идентификатор : 0
Формат : MPEG-4 Visual
Профиль формата : Advanced Simple@L5
Параметр BVOP формата : 1
Параметр QPel формата : Нет
Параметр GMC формата : Без точки перехода
Параметр матрицы формата : Default (H.263)
Идентификатор кодека : XVID
Идентификатор кодека/Подсказка : XviD
Продолжительность : 2 ч. 28 м.
Битрейт : 1268 Кбит/сек
Ширина : 672 пикселя
Высота : 288 пикселей
Соотношение сторон : 2,35:1
Частота кадров : 24,000 кадра/сек
Цветовое пространство : YUV
Субдискретизация насыщенности : 4:2:0
Битовая глубина : 8 бит
Тип развёртки : Прогрессивная
Метод сжатия : С потерями
Бит/(Пиксели*Кадры) : 0.273
Размер потока : 1,32 Гбайт (90%)
Библиотека кодирования : XviD 1.2.1 (UTC 2008-12-04)
Аудио
Идентификатор : 1
Формат : MPEG Audio
Версия формата : Version 1
Профиль формата : Layer 3
Режим : Joint stereo
Расширение режима : MS Stereo
Идентификатор кодека : 55
Идентификатор кодека/Подсказка : MP3
Продолжительность : 2 ч. 28 м.
Вид битрейта : Постоянный
Битрейт : 128 Кбит/сек
Каналы : 2 канала
Частота : 48,0 КГц
Метод сжатия : С потерями
Размер потока : 136 Мбайт (9%)
Выравнивание : Соединение по промежуткам
Продолжительность промежутка : 42 мс. (1,00 видеокадр)
Время предзагрузки промежутка : 504 мс.
-
Скачать

Скачать торрент! Одинокий / Solo (Парасурам / Parasuram) [2011, Индия, Мелодрама, HDRip] MVO (Red Media)

Как скачивать? · Что такое торрент? · Рейтинг и ограничения

Сайт не распространяет и не хранит электронные версии произведений, а лишь предоставляет доступ к создаваемому пользователями каталогу ссылок на торрент-файлы, которые содержат только списки хеш-сумм

[Профиль] [ЛС]
Показать сообщения:    
Ответить на тему

Текущее время: Сегодня 19:43

Часовой пояс: GMT + 4



Вы не можете начинать темы
Вы не можете отвечать на сообщения
Вы не можете редактировать свои сообщения
Вы не можете удалять свои сообщения
Вы не можете голосовать в опросах
Вы не можете прикреплять файлы к сообщениям
Вы не можете скачивать файлы