Первый учитель (Андрей Кончаловский) [1965, драма, DVDRip-AVC]

Ответить на тему
 
Автор Сообщение

user ®

Стаж: 7 лет 7 месяцев

Сообщений: 20008

Пост Пост: #1 от 16-Фев-2014 12:25

[Цитировать]

Первый учитель
Жанр: драма
Год выпуска: 1965
Продолжительность: 01:34:57
Режиссёр: Андрей Кончаловский
В ролях: Болот Бейшеналиев, Наталья Аринбасарова, Идрис Ногайбаев, Даркуль Куюкова, М. Кычтобалев, Клара Юсупжанова, Бакен Кыдыкеева, Медел Маниязов, Искен Рыскулов, Советбек Джумадылов
Описание: Действие разворачивается в первые годы Советской власти в Кыргызстане (Киргизская Советская Социалистическая Республика).Не так давно закончилась Гражданская война. В аул, по путёвке комсомола, приезжает учитель Дюйшен, вчерашний красноармеец. Его пылкость и фанатизм, с которыми он пытается нести прогресс, сталкиваются с многовековыми устоями жизни на Востоке...
По одноименной книге Чингиза Айтматова.
Полная реставрация изображения и звука "Крупный план"
Серебряная медаль Оселла и приз Кубок Вольпи, 1966 г.
Премия МКФ молодых кинематографистов в Йере, 1967 г.
Приз журнала «Советский экран», 1966 г.
Премия кинообозрения «Капитолийский Юпитер» Рим
Венецианский кинофестиваль, 1966 год
Победитель: Кубок Вольпи за лучшую женскую роль (Наталья Аринбасарова)
Номинации: Золотой лев

Доп. информация: «Эту картину временами больно смотреть, больно физически, но эта боль всегда оправдана. Режиссер без вежливых умолчаний сдирает с истории все покровы внешней благопристойности. Эта картина не для людей, пришедших в кино отдохнуть, развлечься».
«Первый учитель» — первый полнометражный фильм Андрея Кончаловского, которым он защитил свой ВГИКовский диплом.
Дебютная работа кинооператора Георгия Рерберга.
Сэмпл: http://multi-up.com/950931
Качество видео: DVDRip-AVC
Формат видео: MKV
Видео: h264 AVC (High@L4.1), 720х576@768x576, (4:3), 1768 Kbps, 25 fps
Аудио: 48 kHz, AC3 Dolby Digital, 3/2 (L,C,R,l,r) + LFE ch, ~448.00 kbps avg

MediaInfo

Общее
Уникальный идентификатор : 233649975371856172468221038726053360062 (0xAFC759313A33D1A58560CED6C253F1BE)
Полное имя : D:\Pervyi.uchitel_1965.mkv
Формат : Matroska
Версия формата : Version 2
Размер файла : 1,47 Гбайт
Продолжительность : 1 ч. 34 м.
Общий поток : 2218 Кбит/сек
Дата кодирования : UTC 2014-02-14 00:26:28
Программа кодирования : mkvmerge v6.1.0 ('Old Devil') built on Mar 4 2013 09:10:42
Библиотека кодирования : libebml v1.3.0 + libmatroska v1.4.0
Видео
Идентификатор : 1
Формат : AVC
Формат/Информация : Advanced Video Codec
Профиль формата : High@L4.1
Параметр CABAC формата : Да
Параметр ReFrames формата : 4 кадра
Идентификатор кодека : V_MPEG4/ISO/AVC
Продолжительность : 1 ч. 34 м.
Битрейт : 1768 Кбит/сек
Ширина : 720 пикселей
Высота : 576 пикселей
Соотношение сторон : 4:3
Режим частоты кадров : Постоянный
Частота кадров : 25,000 кадров/сек
Стандарт вещания : PAL
Цветовое пространство : YUV
Субдискретизация насыщенности : 4:2:0
Битовая глубина : 8 бит
Тип развёртки : Прогрессивная
Бит/(Пиксели*Кадры) : 0.171
Размер потока : 1,14 Гбайт (78%)
Библиотека кодирования : x264 core 130 r2273 b3065e6
Настройки программы : cabac=1 / ref=4 / deblock=1:-2:-1 / analyse=0x3:0x113 / me=umh / subme=10 / psy=1 / psy_rd=1.00:0.20 / mixed_ref=1 / me_range=32 / chroma_me=1 / trellis=2 / 8x8dct=1 / cqm=0 / deadzone=21,11 / fast_pskip=0 / chroma_qp_offset=-3 / threads=12 / lookahead_threads=1 / sliced_threads=0 / nr=0 / decimate=0 / interlaced=0 / bluray_compat=0 / constrained_intra=0 / bframes=3 / b_pyramid=2 / b_adapt=2 / b_bias=0 / direct=3 / weightb=1 / open_gop=0 / weightp=2 / keyint=250 / keyint_min=25 / scenecut=40 / intra_refresh=0 / rc_lookahead=60 / rc=2pass / mbtree=1 / bitrate=1768 / ratetol=1.0 / qcomp=0.60 / qpmin=0 / qpmax=69 / qpstep=4 / cplxblur=20.0 / qblur=0.5 / vbv_maxrate=50000 / vbv_bufsize=50000 / nal_hrd=none / ip_ratio=1.40 / aq=1:1.00
Default : Да
Forced : Нет
Аудио
Идентификатор : 2
Формат : AC-3
Формат/Информация : Audio Coding 3
Расширение режима : CM (complete main)
Параметр Endianness формата : Big
Идентификатор кодека : A_AC3
Продолжительность : 1 ч. 34 м.
Вид битрейта : Постоянный
Битрейт : 448 Кбит/сек
Каналы : 6 каналов
Расположение каналов : Front: L C R, Side: L R, LFE
Частота : 48,0 КГц
Битовая глубина : 16 бит
Метод сжатия : С потерями
Размер потока : 304 Мбайт (20%)
Default : Да
Forced : Нет

Скриншот c названием фильма

Скриншоты

Скачать

Скачать торрент!

Как скачивать? · Что такое торрент? · Рейтинг и ограничения

Сайт не распространяет и не хранит электронные версии произведений, а лишь предоставляет доступ к создаваемому пользователями каталогу ссылок на торрент-файлы, которые содержат только списки хеш-сумм

[Профиль] [ЛС]
Показать сообщения:    
Ответить на тему

Текущее время: Сегодня 23:51

Часовой пояс: GMT + 4



Вы не можете начинать темы
Вы не можете отвечать на сообщения
Вы не можете редактировать свои сообщения
Вы не можете удалять свои сообщения
Вы не можете голосовать в опросах
Вы не можете прикреплять файлы к сообщениям
Вы не можете скачивать файлы