Холодное блюдо (Владимир Нахабцев (мл.)) [2013, криминал, мелодрама, DVB]

Ответить на тему
 
Автор Сообщение

user ®

Стаж: 7 лет 7 месяцев

Сообщений: 20008

Пост Пост: #1 от 16-Фев-2014 03:05

[Цитировать]

Холодное блюдо
Жанр: криминал, мелодрама
Год выпуска: 2013
Продолжительность: 1:31:32
Режиссер: Владимир Нахабцев (мл.)
В ролях: Илья Шакунов, Ева Андреевайте, Дмитрий Горевой, Валерий Новиков, Татьяна Черкасова, Михаил Горевой, Алиса Майорова, Александр Наумов, Евгения Нохрина
Описание: Пятнадцать лет назад молодой следователь Александр Астахов довел до суда дело крупного криминального авторитета Демидова. Тот получил восемь лет и поклялся отомстить. И у него это получилось: Астахова обвинили во взяточничестве и сговоре с преступными группировками. Доказать свою невиновность он так и не смог. Следователь отсидел срок, уехал в город, где открыл собственный автосервис, встретил свою любовь и создал семью. Казалось бы, жизнь наладилась, все стало по-другому, но судьба приготовила Астахову новый сюрприз…-Сэмпл-Качество: DVB (Eutelsat 36A at 36.0°E)
Формат: MPEG-PS
Видео: MPEG 2, 720x576 (16:9), 25.000 fps, 3945 Kbps (0.380 bit/pixel)
Аудио: MP2, 48.0 KHz, 2 ch, 192 Kbps, CBR-

MediaInfo

ОбщееПолное имя : L:\Раздачи\Холодное блюдо.mpgФормат : MPEG-PSРазмер файла : 2,70 ГбайтПродолжительность : 1 ч. 31 м.Режим общего битрейта : ПеременныйОбщий поток : 4221 Кбит/сек
ВидеоИдентификатор : 224 (0xE0)Формат : MPEG VideoВерсия формата : Version 2Профиль формата : Main@MainПараметр BVOP формата : ДаПараметр матрицы формата : ВыборочнаяПараметр GOP формата : VariableПродолжительность : 1 ч. 31 м.Вид битрейта : ПеременныйБитрейт : 3945 Кбит/секМаксимальный битрейт : 15,0 Мбит/секШирина : 720 пикселейВысота : 576 пикселейСоотношение сторон : 16:9Частота кадров : 25,000 кадров/секСтандарт вещания : PALЦветовое пространство : YUVСубдискретизация насыщенности : 4:2:0Битовая глубина : 8 битТип развёртки : ЧересстрочнаяПорядок развёртки : Верхнее поле первоеМетод сжатия : С потерямиБит/(Пиксели*Кадры) : 0.380Временной код первого кадра : 00:00:00:00Оригинал временного кода : Group of pictures headerРазмер потока : 2,52 Гбайт (93%)
АудиоИдентификатор : 192 (0xC0)Формат : MPEG AudioВерсия формата : Version 1Профиль формата : Layer 2Продолжительность : 1 ч. 31 м.Вид битрейта : ПостоянныйБитрейт : 192 Кбит/секКаналы : 2 каналаЧастота : 48,0 КГцМетод сжатия : С потерямиРазмер потока : 126 Мбайт (5%)
Меню

Скриншоты


-
Скачать

Скачать торрент!

Как скачивать? · Что такое торрент? · Рейтинг и ограничения

Сайт не распространяет и не хранит электронные версии произведений, а лишь предоставляет доступ к создаваемому пользователями каталогу ссылок на торрент-файлы, которые содержат только списки хеш-сумм

[Профиль] [ЛС]
Показать сообщения:    
Ответить на тему

Текущее время: Сегодня 14:42

Часовой пояс: GMT + 4



Вы не можете начинать темы
Вы не можете отвечать на сообщения
Вы не можете редактировать свои сообщения
Вы не можете удалять свои сообщения
Вы не можете голосовать в опросах
Вы не можете прикреплять файлы к сообщениям
Вы не можете скачивать файлы